Cкачать бесплатно фильмы.
Поиск фильмов
Log Pass забыли?
  Бесплатные фильмы
Скачать Анал для бэйбы - Lichelle Marie
КатегорияАнал / Груди
Похожие фильмы



Похожие онлайн фильмы
Постер фильма Анал для бэйбы - Lichelle Marie
Анал для бэйбы - Lichelle Marie

Обзор



Шлюшку Лишель в анал трахают в машине под колбасу

http://thumbnails115.imagebam.com/50470/07681e504693217.jpg http://thumbnails115.imagebam.com/50470/514d10504693219.jpg http://thumbnails116.imagebam.com/50470/6ed522504693220.jpg http://thumbnails116.imagebam.com/50470/9716e6504693221.jpghttp://thumbnails115.imagebam.com/50470/9828cb504693223.jpg http://thumbnails115.imagebam.com/50470/f3d623504693224.jpg http://thumbnails116.imagebam.com/50470/1e912e504693225.jpg http://thumbnails116.imagebam.com/50470/71ca7b504693226.jpg

General
Complete name                  : C:UsersUserDownloadsAvsPhelpLichelle Marie.mp4
Format                         : MPEG-4
Format profile                 : Sony PSP
Codec ID                       : MSNV
File size                      : 389 MiB
Duration                       : 9mn 0s
Overall bit rate mode          : Variable
Overall bit rate               : 6 033 Kbps
Encoded date                   : UTC 2016-08-30 19:01:58
Tagged date                    : UTC 2016-08-30 19:01:58

Video
ID                             : 1
Format                         : AVC
Format/Info                    : Advanced Video Codec
Format profile                 : Main@L3.0
Format settings, CABAC         : Yes
Format settings, ReFrames      : 2 frames
Codec ID                       : avc1
Codec ID/Info                  : Advanced Video Coding
Duration                       : 9mn 0s
Source duration                : 9mn 0s
Bit rate mode                  : Variable
Bit rate                       : 5 657 Kbps
Maximum bit rate               : 8 000 Kbps
Width                          : 640 pixels
Height                         : 480 pixels
Display aspect ratio           : 16:9
Frame rate mode                : Constant
Frame rate                     : 25.000 fps
Color space                    : YUV
Chroma subsampling             : 4:2:0
Bit depth                      : 8 bits
Scan type                      : Progressive
Bits/(Pixel*Frame)             : 0.737
Stream size                    : 364 MiB (94%)
Source stream size             : 380 MiB (98%)
Language                       : English
Encoded date                   : UTC 2016-08-30 19:01:58
Tagged date                    : UTC 2016-08-30 19:01:58
mdhd_Duration                  : 540240

Audio
ID                             : 2
Format                         : AAC
Format/Info                    : Advanced Audio Codec
Format profile                 : LC
Codec ID                       : 40
Duration                       : 9mn 0s
Source duration                : 9mn 0s
Bit rate mode                  : Constant
Bit rate                       : 128 Kbps
Channel(s)                     : 2 channels
Channel positions              : Front: L R
Sampling rate                  : 48.0 KHz
Compression mode               : Lossy
Stream size                    : 8.24 MiB (2%)
Source stream size             : 8.24 MiB (2%)
Language                       : English
Encoded date                   : UTC 2016-08-30 19:01:58
Tagged date                    : UTC 2016-08-30 19:01:58
mdhd_Duration                  : 540223

Размер388.54 MB (407,415,252 байт)
Скачать Анал для бэйбы - Lichelle Marie

:: ОТЗЫВЫ


button_offline Отзыв от av359
avatar 636035

:w00t: :w00t: :w00t:

РЕГИСТРАЦИЯ.

Смотрите бесплатное порно или эротику

footerLeft
Информация для правообладателей На ёгли вы скачаете порно, бесплатные фильмы, а также новинки кино. Все это бесплатно и без смс.