Cкачать бесплатно фильмы.
Поиск фильмов
Log Pass забыли?
  Бесплатные фильмы
Скачать Анал для знойной блондинки - Puma Swede (Up Her Asshole 3)
КатегорияАнал / Зрелые / Груди
Похожие фильмы



Похожие онлайн фильмы
Постер фильма Анал для знойной блондинки - Puma Swede (Up Her Asshole 3)
Анал для знойной блондинки - Puma Swede  (Up Her Asshole 3)

Обзор



Как говорится - нашла приключений на свою жопу


General
Complete name                            : C:UsersUserDownloadsPuma Swede  (Up Her Asshole 3).mp4
Format                                   : MPEG-4
Format profile                           : Base Media
Codec ID                                 : isom
File size                                : 372 MiB
Duration                                 : 50mn 3s
Overall bit rate mode                    : Variable
Overall bit rate                         : 1 039 Kbps
Writing application                      : Lavf56.25.101

Video
ID                                       : 1
Format                                   : AVC
Format/Info                              : Advanced Video Codec
Format profile                           : Baseline@L3.1
Format settings, CABAC                   : No
Format settings, ReFrames                : 3 frames
Codec ID                                 : avc1
Codec ID/Info                            : Advanced Video Coding
Duration                                 : 50mn 3s
Bit rate                                 : 880 Kbps
Width                                    : 854 pixels
Height                                   : 480 pixels
Display aspect ratio                     : 16:9
Original display aspect ratio            : 16:9
Frame rate mode                          : Constant
Frame rate                               : 29.970 fps
Color space                              : YUV
Chroma subsampling                       : 4:2:0
Bit depth                                : 8 bits
Scan type                                : Progressive
Bits/(Pixel*Frame)                       : 0.072
Stream size                              : 315 MiB (85%)
Writing library                          : x264 core 142
Encoding settings                        : cabac=0 / ref=3 / deblock=1:0:0 / analyse=0x1:0x111 / me=hex / subme=7 / psy=1 / psy_rd=1.00:0.00 / mixed_ref=1 / me_range=16 / chroma_me=1 / trellis=1 / 8x8dct=0 / cqm=0 / deadzone=21,11 / fast_pskip=1 / chroma_qp_offset=-2 / threads=4 / lookahead_threads=1 / sliced_threads=0 / nr=0 / decimate=1 / interlaced=0 / bluray_compat=0 / constrained_intra=0 / bframes=0 / weightp=0 / keyint=30 / keyint_min=3 / scenecut=40 / intra_refresh=0 / rc_lookahead=30 / rc=2pass / mbtree=1 / bitrate=880 / ratetol=1.0 / qcomp=0.60 / qpmin=0 / qpmax=69 / qpstep=4 / cplxblur=20.0 / qblur=0.5 / ip_ratio=1.40 / aq=1:1.00

Audio
ID                                       : 2
Format                                   : AAC
Format/Info                              : Advanced Audio Codec
Format profile                           : LC
Codec ID                                 : 40
Duration                                 : 50mn 3s
Bit rate mode                            : Variable
Bit rate                                 : 152 Kbps
Maximum bit rate                         : 160 Kbps
Channel(s)                               : 2 channels
Channel positions                        : Front: L R
Sampling rate                            : 44.1 KHz
Compression mode                         : Lossy
Stream size                              : 54.4 MiB (15%)


http://i76.fastpic.ru/big/2015/1122/c8/fbeb6ee203d12adb9b5d6232a61c42c8.gif http://i66.fastpic.ru/big/2015/1122/9e/ed535146dd4b9975fe192d95dee9db9e.gif
http://i73.fastpic.ru/big/2015/1122/f6/955702fd472912d767e9b440fef0caf6.gif http://i65.fastpic.ru/big/2015/1122/a6/193c1725198df5e55fa16b48230945a6.gif


http://i66.fastpic.ru/big/2015/1122/02/a7979a60f5b417ea6d8f0b416aa55d02.jpg
Размер371.96 MB (390,029,025 байт)
Скачать Анал для знойной блондинки - Puma Swede (Up Her Asshole 3)

:: Отзывы



Отзывы отсутствуют.

 :: Отзывов нет
РЕГИСТРАЦИЯ.

Смотрите бесплатное порно или эротику

footerLeft
Информация для правообладателей На ёгли вы скачаете порно, бесплатные фильмы, а также новинки кино. Все это бесплатно и без смс.