Cкачать бесплатно фильмы.
Поиск фильмов
Log Pass забыли?
  Бесплатные фильмы
Скачать Анал на свежем воздухе - Holly Halston (Going for a Dip)
КатегорияАнал / Зрелые / Груди
Похожие фильмы



Похожие онлайн фильмы
Постер фильма Анал на свежем воздухе - Holly Halston (Going for a Dip)
Анал на свежем воздухе - Holly Halston (Going for a Dip)

Обзор



Сисястую шалаву аналят на белом диване возле бассейна


General
Complete name                            : C:UsersUserDownloadsGoing for a Dip.mkv
Format                                   : Matroska
Format version                           : Version 1
File size                                : 467 MiB
Duration                                 : 2mn 52s
Overall bit rate mode                    : Variable
Overall bit rate                         : 22.7 Mbps
Writing application                      : Cyberlink Matroska Muxer v1.0.0
Writing library                          : libebml v0.7.8 + libmatroska v0.8.1

Video
ID                                       : 1
Format                                   : AVC
Format/Info                              : Advanced Video Codec
Format profile                           : High@L4.1
Format settings, CABAC                   : Yes
Format settings, ReFrames                : 2 frames
Codec ID                                 : V_MS/VFW/FOURCC / H264
Duration                                 : 2mn 52s
Bit rate mode                            : Variable
Bit rate                                 : 22.0 Mbps
Maximum bit rate                         : 23.3 Mbps
Width                                    : 1 280 pixels
Height                                   : 720 pixels
Display aspect ratio                     : 16:9
Frame rate mode                          : Constant
Frame rate                               : 50.000 fps
Color space                              : YUV
Chroma subsampling                       : 4:2:0
Bit depth                                : 8 bits
Scan type                                : Progressive
Bits/(Pixel*Frame)                       : 0.477
Stream size                              : 453 MiB (97%)
Language                                 : English
Default                                  : Yes
Forced                                   : No

Audio
ID                                       : 2
Format                                   : AC-3
Format/Info                              : Audio Coding 3
Mode extension                           : CM (complete main)
Format settings, Endianness              : Big
Codec ID                                 : A_AC3
Duration                                 : 2mn 52s
Bit rate mode                            : Constant
Bit rate                                 : 256 Kbps
Channel(s)                               : 2 channels
Channel positions                        : Front: L R
Sampling rate                            : 48.0 KHz
Bit depth                                : 16 bits
Compression mode                         : Lossy
Stream size                              : 5.27 MiB (1%)
Language                                 : English
Default                                  : Yes
Forced                                   : No




http://i75.fastpic.ru/thumb/2015/1103/92/908179b8921dae081300bc448a177292.jpeg http://i75.fastpic.ru/thumb/2015/1103/57/11b277c012017b57f1b8c65495205e57.jpeg http://i75.fastpic.ru/thumb/2015/1103/16/95ae7e3320cef14f8ab010c9f998a016.jpeg http://i75.fastpic.ru/thumb/2015/1103/e5/28d77dead041bc6cb39008872d09c9e5.jpeg
Размер467.24 MB (489,938,874 байт)
Скачать Анал на свежем воздухе - Holly Halston (Going for a Dip)

:: Отзывы



Отзывы отсутствуют.

 :: Отзывов нет
РЕГИСТРАЦИЯ.

Смотрите бесплатное порно или эротику

footerLeft
Информация для правообладателей На ёгли вы скачаете порно, бесплатные фильмы, а также новинки кино. Все это бесплатно и без смс.