Cкачать бесплатно фильмы.
Поиск фильмов
Log Pass забыли?
  Бесплатные фильмы
Скачать Анальная латинка - Diamond Kitty
КатегорияАнал / Груди
Похожие фильмы



Похожие онлайн фильмы
Постер фильма Анальная латинка - Diamond Kitty
Анальная латинка - Diamond Kitty

Обзор



Сука жахается в анал


General
Complete name                            : C:UsersUserDownloadsDiamond Kitty.mp4
Format                                   : MPEG-4
Format profile                           : Base Media
Codec ID                                 : isom
File size                                : 172 MiB
Duration                                 : 42mn 33s
Overall bit rate mode                    : Variable
Overall bit rate                         : 567 Kbps
Encoded date                             : UTC 1970-01-01 00:00:00
Tagged date                              : UTC 1970-01-01 00:00:00
Writing application                      : Lavf52.40.0

Video
ID                                       : 1
Format                                   : AVC
Format/Info                              : Advanced Video Codec
Format profile                           : Baseline@L3.0
Format settings, CABAC                   : No
Format settings, ReFrames                : 1 frame
Codec ID                                 : avc1
Codec ID/Info                            : Advanced Video Coding
Duration                                 : 42mn 33s
Bit rate                                 : 450 Kbps
Width                                    : 640 pixels
Height                                   : 360 pixels
Display aspect ratio                     : 16:9
Frame rate mode                          : Constant
Frame rate                               : 25.000 fps
Color space                              : YUV
Chroma subsampling                       : 4:2:0
Bit depth                                : 8 bits
Scan type                                : Progressive
Bits/(Pixel*Frame)                       : 0.078
Stream size                              : 132 MiB (77%)
Writing library                          : x264 core 79
Encoding settings                        : cabac=0 / ref=1 / deblock=1:0:0 / analyse=0x1:0x131 / me=tesa / subme=9 / psy=1 / psy_rd=1.0:0.0 / mixed_ref=0 / me_range=24 / chroma_me=1 / trellis=0 / 8x8dct=0 / cqm=0 / deadzone=21,11 / chroma_qp_offset=-2 / threads=24 / nr=0 / decimate=1 / mbaff=0 / constrained_intra=0 / bframes=0 / wpredp=0 / keyint=250 / keyint_min=25 / scenecut=40 / rc_lookahead=40 / rc=cbr / mbtree=1 / bitrate=450 / ratetol=8.9 / qcomp=0.60 / qpmin=10 / qpmax=51 / qpstep=4 / vbv_maxrate=10000 / vbv_bufsize=10000 / ip_ratio=1.41 / aq=1:1.00
Language                                 : Hebrew
Encoded date                             : UTC 1970-01-01 00:00:00
Tagged date                              : UTC 1970-01-01 00:00:00

Audio
ID                                       : 2
Format                                   : AAC
Format/Info                              : Advanced Audio Codec
Format profile                           : LC
Codec ID                                 : 40
Duration                                 : 42mn 33s
Bit rate mode                            : Variable
Bit rate                                 : 128 Kbps
Channel(s)                               : 2 channels
Channel positions                        : Front: L R
Sampling rate                            : 44.1 KHz
Compression mode                         : Lossy
Stream size                              : 39.0 MiB (23%)
Language                                 : Hebrew
Encoded date                             : UTC 1970-01-01 00:00:00
Tagged date                              : UTC 1970-01-01 00:00:00


http://i65.fastpic.ru/big/2015/1128/06/f6a12cf21a609e82f32016debffa7706.gif http://i65.fastpic.ru/big/2015/1128/b6/1689b2e97d943d80758a7fdef8bbdeb6.gif
http://i74.fastpic.ru/big/2015/1128/e6/5e2445418ed4e1c2829d7a75a93bbee6.gif http://i66.fastpic.ru/big/2015/1128/f9/f31400defdc689962942409995c911f9.gif


http://i75.fastpic.ru/big/2015/1128/43/ef343b28931f67eb99a8277500a7f343.jpg
Размер172.48 MB (180,858,850 байт)
Скачать Анальная латинка - Diamond Kitty

:: Отзывы



Отзывы отсутствуют.

 :: Отзывов нет
РЕГИСТРАЦИЯ.

Смотрите бесплатное порно или эротику

footerLeft
Информация для правообладателей На ёгли вы скачаете порно, бесплатные фильмы, а также новинки кино. Все это бесплатно и без смс.