Cкачать бесплатно фильмы.
Поиск фильмов
Log Pass забыли?
  Бесплатные фильмы
Скачать Анальная оккупация - Sammie Spades and Raylene (Anal Occupation)
КатегорияОргия / Анал
Похожие фильмы



Похожие онлайн фильмы
Постер фильма Анальная оккупация - Sammie Spades and Raylene (Anal Occupation)
Анальная оккупация - Sammie Spades and Raylene (Anal Occupation)
Фото фильма Анальная оккупация - Sammie Spades and Raylene (Anal Occupation)
Анальная оккупация - Sammie Spades and Raylene (Anal Occupation)

Обзор



Двух блядей аналят, блондинку натянут на два хуя сразу


General
Complete name                            : C:UsersUserDownloadsSammie Spades and Raylene.mp4
Format                                   : MPEG-4
Format profile                           : Base Media
Codec ID                                 : isom
File size                                : 186 MiB
Duration                                 : 30mn 0s
Overall bit rate mode                    : Variable
Overall bit rate                         : 866 Kbps
Encoded date                             : UTC 2013-01-04 11:19:44
Tagged date                              : UTC 2013-01-04 11:19:44

Video
ID                                       : 1
Format                                   : AVC
Format/Info                              : Advanced Video Codec
Format profile                           : Main@L3.1
Format settings, CABAC                   : Yes
Format settings, ReFrames                : 8 frames
Format settings, GOP                     : M=1, N=25
Codec ID                                 : avc1
Codec ID/Info                            : Advanced Video Coding
Duration                                 : 30mn 0s
Bit rate                                 : 800 Kbps
Maximum bit rate                         : 1 448 Kbps
Width                                    : 638 pixels
Height                                   : 360 pixels
Display aspect ratio                     : 16:9
Frame rate mode                          : Constant
Frame rate                               : 25.000 fps
Color space                              : YUV
Chroma subsampling                       : 4:2:0
Bit depth                                : 8 bits
Scan type                                : Progressive
Bits/(Pixel*Frame)                       : 0.139
Stream size                              : 172 MiB (92%)
Writing library                          : Zencoder Video Encoding System
Encoded date                             : UTC 2013-01-04 11:11:39
Tagged date                              : UTC 2013-01-04 11:19:45

Audio
ID                                       : 2
Format                                   : AAC
Format/Info                              : Advanced Audio Codec
Format profile                           : LC
Codec ID                                 : 40
Duration                                 : 30mn 0s
Bit rate mode                            : Variable
Bit rate                                 : 64.0 Kbps
Maximum bit rate                         : 69.2 Kbps
Channel(s)                               : 2 channels
Channel positions                        : Front: L R
Sampling rate                            : 48.0 KHz
Compression mode                         : Lossy
Stream size                              : 13.7 MiB (7%)
Encoded date                             : UTC 2013-01-04 11:19:45
Tagged date                              : UTC 2013-01-04 11:19:45


http://i67.fastpic.ru/thumb/2015/1113/76/30d2f649b4b291441c089ec3dcd27576.jpeg http://i67.fastpic.ru/thumb/2015/1113/51/d7166b98ed2659def43b5e32b8b83c51.jpeg http://i67.fastpic.ru/thumb/2015/1113/a2/36e980f983f7785b7eab7582be1dd3a2.jpeg http://i67.fastpic.ru/thumb/2015/1113/7d/eb6fd6a583bf69bc4f03c889d71af87d.jpeg


Размер185.94 MB (194,968,871 байт)
Скачать Анальная оккупация - Sammie Spades and Raylene (Anal Occupation)

:: Отзывы



Отзывы отсутствуют.

 :: Отзывов нет
РЕГИСТРАЦИЯ.

Смотрите бесплатное порно или эротику

footerLeft
Информация для правообладателей На ёгли вы скачаете порно, бесплатные фильмы, а также новинки кино. Все это бесплатно и без смс.