Cкачать бесплатно фильмы.
Поиск фильмов
Log Pass забыли?
  Бесплатные фильмы
Скачать Анальные утехи посреди рабочего дня - Diamond Foxxx (Stepmom Likes It Rough)
КатегорияАнал / Зрелые / Груди
Похожие фильмы



Похожие онлайн фильмы
Постер фильма Анальные утехи посреди рабочего дня - Diamond Foxxx (Stepmom Likes It Rough)
Анальные утехи посреди рабочего дня - Diamond Foxxx (Stepmom Likes It Rough)

Обзор



Похотливую зрелую суку, оставшуюся дома неудовлетворенной, трахает в жопу молодой сосед


General
Complete name                            : C:UsersUserDownloadsDiamond Foxxx (Stepmom Likes It Rough).mp4
Format                                   : MPEG-4
Format profile                           : Base Media
Codec ID                                 : isom
File size                                : 451 MiB
Duration                                 : 28mn 17s
Overall bit rate                         : 2 229 Kbps
Writing application                      : Lavf55.1.100

Video
ID                                       : 1
Format                                   : AVC
Format/Info                              : Advanced Video Codec
Format profile                           : High@L3.0
Format settings, CABAC                   : Yes
Format settings, ReFrames                : 5 frames
Codec ID                                 : avc1
Codec ID/Info                            : Advanced Video Coding
Duration                                 : 28mn 17s
Bit rate                                 : 2 000 Kbps
Width                                    : 854 pixels
Height                                   : 480 pixels
Display aspect ratio                     : 16:9
Frame rate mode                          : Constant
Frame rate                               : 23.976 fps
Color space                              : YUV
Chroma subsampling                       : 4:2:0
Bit depth                                : 8 bits
Scan type                                : Progressive
Bits/(Pixel*Frame)                       : 0.203
Stream size                              : 404 MiB (90%)
Writing library                          : x264 core 130 r2274 c832fe9
Encoding settings                        : cabac=1 / ref=5 / deblock=1:0:0 / analyse=0x3:0x113 / me=umh / subme=8 / psy=1 / psy_rd=1.00:0.00 / mixed_ref=1 / me_range=16 / chroma_me=1 / trellis=1 / 8x8dct=1 / cqm=0 / deadzone=21,11 / fast_pskip=1 / chroma_qp_offset=-2 / threads=36 / lookahead_threads=3 / sliced_threads=0 / nr=0 / decimate=1 / interlaced=0 / bluray_compat=0 / constrained_intra=0 / bframes=3 / b_pyramid=2 / b_adapt=2 / b_bias=0 / direct=3 / weightb=1 / open_gop=0 / weightp=2 / keyint=60 / keyint_min=6 / scenecut=40 / intra_refresh=0 / rc_lookahead=50 / rc=abr / mbtree=1 / bitrate=2000 / ratetol=1.0 / qcomp=0.60 / qpmin=0 / qpmax=69 / qpstep=4 / ip_ratio=1.40 / aq=1:1.00
Language                                 : English
Tagged date                              : UTC 2015-10-30 20:05:58

Audio
ID                                       : 2
Format                                   : AAC
Format/Info                              : Advanced Audio Codec
Format profile                           : LC
Codec ID                                 : 40
Duration                                 : 28mn 17s
Duration_LastFrame                       : 33ms
Bit rate mode                            : Constant
Bit rate                                 : 128 Kbps
Channel(s)                               : 2 channels
Channel positions                        : Front: L R
Sampling rate                            : 48.0 KHz
Compression mode                         : Lossy
Stream size                              : 25.9 MiB (6%)
Language                                 : English
Tagged date                              : UTC 2015-10-30 20:05:58

Other #1
ID                                       : 65536
Type                                     : Hint
Format                                   : RTP
Codec ID                                 : rtp
Duration                                 : 28mn 17s
Encoded date                             : UTC 2015-10-30 20:05:54
Tagged date                              : UTC 2015-10-30 20:05:58

Other #2
ID                                       : 65537
Type                                     : Hint
Format                                   : RTP
Codec ID                                 : rtp
Duration                                 : 28mn 17s
Encoded date                             : UTC 2015-10-30 20:05:57
Tagged date                              : UTC 2015-10-30 20:05:58
Bit rate mode                            : VBR


http://i66.fastpic.ru/thumb/2015/1102/f4/309edc09ebb9f626195cabad7d0734f4.jpeg http://i66.fastpic.ru/thumb/2015/1102/af/2ed77e0d3756464e94fcfe2c2eb204af.jpeg http://i66.fastpic.ru/thumb/2015/1102/9a/041f38201fc0945d2b15635aa7cb0b9a.jpeg http://i66.fastpic.ru/thumb/2015/1102/56/5da56e7cfe50597eb4aa4718b426a756.jpeg
Размер451.09 MB (473,006,691 байт)
Скачать Анальные утехи посреди рабочего дня - Diamond Foxxx (Stepmom Likes It Rough)

:: Отзывы



Отзывы отсутствуют.

 :: Отзывов нет
РЕГИСТРАЦИЯ.

Смотрите бесплатное порно или эротику

footerLeft
Информация для правообладателей На ёгли вы скачаете порно, бесплатные фильмы, а также новинки кино. Все это бесплатно и без смс.