Cкачать бесплатно фильмы.
Поиск фильмов
Log Pass забыли?
  Бесплатные фильмы
Скачать Анальный антистресс - Mckenzie Lee (My Wife Caught Me Assfucking Her Mother 5)
КатегорияАнал / Зрелые / Груди
Похожие фильмы



Похожие онлайн фильмы
Постер фильма Анальный антистресс - Mckenzie Lee (My Wife Caught Me Assfucking Her Mother 5)
Анальный антистресс - Mckenzie Lee  (My Wife Caught Me Assfucking Her Mother 5)

Обзор



Шалаву с надувными бидонами ебут в анал


General
Complete name                            : C:UsersUserDownloadsMckenzie Lee  (My Wife Caught Me Assfucking Her Mother 5).mp4
Format                                   : MPEG-4
Format profile                           : Base Media
Codec ID                                 : isom
File size                                : 428 MiB
Duration                                 : 30mn 22s
Overall bit rate                         : 1 971 Kbps
Writing application                      : Lavf55.12.100

Video
ID                                       : 2
Format                                   : AVC
Format/Info                              : Advanced Video Codec
Format profile                           : Main@L3.1
Format settings, CABAC                   : Yes
Format settings, ReFrames                : 2 frames
Codec ID                                 : avc1
Codec ID/Info                            : Advanced Video Coding
Duration                                 : 30mn 22s
Bit rate                                 : 1 804 Kbps
Width                                    : 960 pixels
Height                                   : 540 pixels
Display aspect ratio                     : 16:9
Frame rate mode                          : Constant
Frame rate                               : 29.970 fps
Color space                              : YUV
Chroma subsampling                       : 4:2:0
Bit depth                                : 8 bits
Scan type                                : Progressive
Bits/(Pixel*Frame)                       : 0.116
Stream size                              : 392 MiB (92%)

Audio
ID                                       : 1
Format                                   : AAC
Format/Info                              : Advanced Audio Codec
Format profile                           : LC
Codec ID                                 : 40
Duration                                 : 30mn 22s
Duration_LastFrame                       : -10ms
Bit rate mode                            : Constant
Bit rate                                 : 160 Kbps
Channel(s)                               : 2 channels
Channel positions                        : Front: L R
Sampling rate                            : 44.1 KHz
Compression mode                         : Lossy
Stream size                              : 34.8 MiB (8%)


http://i73.fastpic.ru/big/2015/1126/3a/4ae7b724f707f9356be8914a068d7f3a.gif http://i76.fastpic.ru/big/2015/1126/80/1cc322bc24ce17e215f9d47092013780.gif
http://i66.fastpic.ru/big/2015/1126/4d/c5e4b09bd866ca683e84275e0517be4d.gif http://i67.fastpic.ru/big/2015/1126/7c/acc3dcd4e5030300cb608654ace5c37c.gif


http://i67.fastpic.ru/big/2015/1126/ae/7b10eb186966d0939b653a6621e791ae.jpg
Размер428.18 MB (448,976,630 байт)
Скачать Анальный антистресс - Mckenzie Lee (My Wife Caught Me Assfucking Her Mother 5)

:: Отзывы



Отзывы отсутствуют.

 :: Отзывов нет
РЕГИСТРАЦИЯ.

Смотрите бесплатное порно или эротику

footerLeft
Информация для правообладателей На ёгли вы скачаете порно, бесплатные фильмы, а также новинки кино. Все это бесплатно и без смс.