Cкачать бесплатно фильмы.
Поиск фильмов
Log Pass забыли?
  Бесплатные фильмы
Скачать Анальный дебют - Mellanie Monroe (Anal Frenzy 2)
КатегорияАнал / Зрелые / Груди
Похожие фильмы



Похожие онлайн фильмы
Постер фильма Анальный дебют - Mellanie Monroe (Anal Frenzy 2)
Анальный дебют - Mellanie Monroe (Anal Frenzy 2)

Обзор



Белокурая жопастая блядь первый раз пробует анал


General
Complete name                            : C:UsersUserDownloadsMellanie Monroe (Anal Frenzy 2).mp4
Format                                   : MPEG-4
Format profile                           : Base Media
Codec ID                                 : isom
File size                                : 824 MiB
Duration                                 : 58mn 39s
Overall bit rate mode                    : Variable
Overall bit rate                         : 1 963 Kbps
Encoded date                             : UTC 1970-01-01 00:00:00
Tagged date                              : UTC 1970-01-01 00:00:00
Writing application                      : Lavf52.93.0

Video
ID                                       : 1
Format                                   : AVC
Format/Info                              : Advanced Video Codec
Format profile                           : High@L3.1
Format settings, CABAC                   : Yes
Format settings, ReFrames                : 4 frames
Codec ID                                 : avc1
Codec ID/Info                            : Advanced Video Coding
Duration                                 : 58mn 39s
Bit rate                                 : 1 800 Kbps
Width                                    : 960 pixels
Height                                   : 544 pixels
Display aspect ratio                     : 16:9
Frame rate mode                          : Constant
Frame rate                               : 29.970 fps
Color space                              : YUV
Chroma subsampling                       : 4:2:0
Bit depth                                : 8 bits
Scan type                                : Progressive
Bits/(Pixel*Frame)                       : 0.115
Stream size                              : 757 MiB (92%)
Writing library                          : x264 core 107
Encoding settings                        : cabac=1 / ref=3 / deblock=1:0:0 / analyse=0x3:0x113 / me=umh / subme=6 / psy=1 / psy_rd=1.00:0.00 / mixed_ref=1 / me_range=16 / chroma_me=1 / trellis=0 / 8x8dct=1 / cqm=0 / deadzone=21,11 / fast_pskip=1 / chroma_qp_offset=-2 / threads=1 / sliced_threads=0 / nr=0 / decimate=1 / interlaced=0 / constrained_intra=0 / bframes=2 / b_pyramid=2 / b_adapt=2 / b_bias=0 / direct=2 / weightb=1 / open_gop=0 / weightp=0 / keyint=30 / keyint_min=16 / scenecut=0 / intra_refresh=0 / rc_lookahead=30 / rc=abr / mbtree=1 / bitrate=1800 / ratetol=1.0 / qcomp=0.60 / qpmin=1 / qpmax=31 / qpstep=4 / ip_ratio=1.41 / aq=1:1.00
Encoded date                             : UTC 1970-01-01 00:00:00
Tagged date                              : UTC 1970-01-01 00:00:00

Audio
ID                                       : 2
Format                                   : AAC
Format/Info                              : Advanced Audio Codec
Format profile                           : LC
Codec ID                                 : 40
Duration                                 : 58mn 39s
Bit rate mode                            : Variable
Bit rate                                 : 152 Kbps
Channel(s)                               : 2 channels
Channel positions                        : Front: L R
Sampling rate                            : 44.1 KHz
Compression mode                         : Lossy
Stream size                              : 63.7 MiB (8%)
Encoded date                             : UTC 1970-01-01 00:00:00
Tagged date                              : UTC 1970-01-01 00:00:00


http://i75.fastpic.ru/big/2015/1117/72/b1e39d0d85c1713684d5ba99d9d84c72.gif http://i75.fastpic.ru/big/2015/1117/04/4a36c0de8aa583af3e27b9075a7b5c04.gif
http://i74.fastpic.ru/big/2015/1117/f8/6868ddad38b4b8bf6ae545708285a0f8.gif http://i75.fastpic.ru/big/2015/1117/b7/cd48a80a451d8a3ea2ff6264960ad8b7.gif
http://i65.fastpic.ru/big/2015/1117/3a/d908fcdc307580bced6f24797abf693a.gif http://i74.fastpic.ru/big/2015/1117/e4/3e61b48e15f4f5374e746719cde361e4.gif


http://i65.fastpic.ru/big/2015/1117/39/e982dc9e671051ed380d05e7a7936f39.jpg
Размер823.51 MB (863,513,912 байт)
Скачать Анальный дебют - Mellanie Monroe (Anal Frenzy 2)

:: ОТЗЫВЫ


button_offline Отзыв от spets7
avatar 737097

вот это оформление!!!!!!!!!!!!!!

button_offline Отзыв от zaaza
avatar 820823

первый раз в этот день? )))))
:-D

button_offline Отзыв от Papachka_Elf
avatar 393629

:-D :-D :-D :-D :-D :-D :-D :-D :-D

РЕГИСТРАЦИЯ.

Смотрите бесплатное порно или эротику

footerLeft
Информация для правообладателей На ёгли вы скачаете порно, бесплатные фильмы, а также новинки кино. Все это бесплатно и без смс.