Cкачать бесплатно фильмы.
Поиск фильмов
Log Pass забыли?
  Бесплатные фильмы
Скачать Анджелина, Хелли и черний парень - angelina, hellie and black boy
КатегорияМежрассовое / Груди
Похожие фильмы



Похожие онлайн фильмы
Постер фильма Анджелина, Хелли и черний парень - angelina, hellie and black boy
Анджелина, Хелли и черний парень - angelina, hellie and black boy
Фото фильма Анджелина, Хелли и черний парень - angelina, hellie and black boy
Анджелина, Хелли и черний парень - angelina, hellie and black boy

Обзор



Format                           : MPEG-4
Format profile                   : Base Media
Codec ID                         : isom
File size                        : 425 MiB
Duration                         : 45mn 52s
Overall bit rate                 : 1 296 Kbps
Writing application              : Lavf52.32.0

Video
ID                               : 1
Format                           : AVC
Format/Info                      : Advanced Video Codec
Format profile                   : High@L3.0
Format settings, CABAC           : Yes
Format settings, ReFrames        : 3 frames
Codec ID                         : avc1
Codec ID/Info                    : Advanced Video Coding
Duration                         : 45mn 52s
Bit rate mode                    : Variable
Bit rate                         : 1 100 Kbps
Width                            : 768 pixels
Height                           : 432 pixels
Display aspect ratio             : 16:9
Frame rate mode                  : Variable
Frame rate                       : 29.970 fps
Minimum frame rate               : 7.493 fps
Maximum frame rate               : 29.970 fps
Color space                      : YUV
Chroma subsampling               : 4:2:0
Bit depth                        : 8 bits
Scan type                        : Progressive
Bits/(Pixel*Frame)               : 0.111
Stream size                      : 361 MiB (85%)
Language                         : English
Tagged date                      : UTC 2011-06-05 23:25:20

Audio
ID                               : 2
Format                           : AAC
Format/Info                      : Advanced Audio Codec
Format profile                   : LC
Codec ID                         : 40
Duration                         : 45mn 52s
Bit rate mode                    : Variable
Bit rate                         : 128 Kbps
Channel(s)                       : 2 channels
Channel positions                : Front: L R
Sampling rate                    : 48.0 KHz
Compression mode                 : Lossy
Stream size                      : 42.0 MiB (10%)
Language                         : English
Размер425.26 MB (445,917,839 байт)
Скачать Анджелина, Хелли и черний парень - angelina, hellie and black boy

:: Отзывы



Отзывы отсутствуют.

 :: Отзывов нет
РЕГИСТРАЦИЯ.

Смотрите бесплатное порно или эротику

footerLeft
Информация для правообладателей На ёгли вы скачаете порно, бесплатные фильмы, а также новинки кино. Все это бесплатно и без смс.