Cкачать бесплатно фильмы.
Поиск фильмов
Log Pass забыли?
  Бесплатные фильмы
Скачать Анита Квин и Дженнифер Макс - eurogirlsongirls-7675-1-high
КатегорияЛесбо / Груди
Похожие фильмы



Похожие онлайн фильмы
Постер фильма Анита Квин и Дженнифер Макс - eurogirlsongirls-7675-1-high
Анита Квин и Дженнифер Макс - eurogirlsongirls-7675-1-high
Фото фильма Анита Квин и Дженнифер Макс - eurogirlsongirls-7675-1-high
Анита Квин и Дженнифер Макс - eurogirlsongirls-7675-1-high

Обзор



File size                        : 640 MiB
Duration                         : 21mn 44s
Overall bit rate mode            : Constant
Overall bit rate                 : 4 114 Kbps
Maximum Overall bit rate         : 4 130 Kbps
Encoded date                     : UTC 2007-04-12 14:47:13.602

Video
ID                               : 2
Format                           : VC-1
Format profile                   : MP@HL
Codec ID                         : WMV3
Codec ID/Info                    : Windows Media Video 9
Codec ID/Hint                    : WMV3
Description of the codec         : Windows Media Video 9 - Professional
Duration                         : 21mn 44s
Bit rate mode                    : Constant
Bit rate                         : 4 000 Kbps
Width                            : 1 280 pixels
Height                           : 720 pixels
Display aspect ratio             : 16:9
Frame rate                       : 29.970 fps
Bit depth                        : 8 bits
Scan type                        : Progressive
Compression mode                 : Lossy
Bits/(Pixel*Frame)               : 0.145
Stream size                      : 622 MiB (97%)
Language                         : Czech

Audio
ID                               : 1
Format                           : WMA
Format version                   : Version 2
Codec ID                         : 161
Codec ID/Info                    : Windows Media Audio
Description of the codec         : Windows Media Audio 9 -  96 kbps, 44 kHz, stereo 1-pass CBR
Duration                         : 21mn 44s
Bit rate mode                    : Constant
Bit rate                         : 96.0 Kbps
Channel(s)                       : 2 channels
Sampling rate                    : 44.1 KHz
Bit depth                        : 16 bits
Stream size                      : 14.9 MiB (2%)
Language                         : Czech
Размер639.62 MB (670,690,720 байт)
Скачать Анита Квин и Дженнифер Макс - eurogirlsongirls-7675-1-high

:: Отзывы



Отзывы отсутствуют.

 :: Отзывов нет
РЕГИСТРАЦИЯ.

Смотрите бесплатное порно или эротику

footerLeft
Информация для правообладателей На ёгли вы скачаете порно, бесплатные фильмы, а также новинки кино. Все это бесплатно и без смс.