Cкачать бесплатно фильмы.
Поиск фильмов
Log Pass забыли?
  Бесплатные фильмы
Скачать Атака сисек - Alura Jenson & Karen Fisher
КатегорияОргия / Зрелые / Груди
Похожие фильмы



Похожие онлайн фильмы
Постер фильма Атака сисек - Alura Jenson & Karen Fisher
Атака сисек - Alura Jenson & Karen Fisher

Обзор



Двух сисястых шлюх ебет лысый


General
Complete name                            : C:UsersUserDownloadsAlura Jenson & Karen Fisher.mp4
Format                                   : MPEG-4
Format profile                           : Base Media
Codec ID                                 : isom
File size                                : 836 MiB
Duration                                 : 37mn 16s
Overall bit rate                         : 3 135 Kbps
Encoded date                             : UTC 2013-08-09 19:08:41
Tagged date                              : UTC 2013-08-09 19:08:41
Writing application                      : Lavf53.32.100

Video
ID                                       : 1
Format                                   : AVC
Format/Info                              : Advanced Video Codec
Format profile                           : High@L3.0
Format settings, CABAC                   : Yes
Format settings, ReFrames                : 4 frames
Codec ID                                 : avc1
Codec ID/Info                            : Advanced Video Coding
Duration                                 : 37mn 16s
Bit rate                                 : 3 000 Kbps
Width                                    : 1 280 pixels
Height                                   : 720 pixels
Display aspect ratio                     : 16:9
Frame rate mode                          : Constant
Frame rate                               : 30.000 fps
Color space                              : YUV
Chroma subsampling                       : 4:2:0
Bit depth                                : 8 bits
Scan type                                : Progressive
Bits/(Pixel*Frame)                       : 0.109
Stream size                              : 800 MiB (96%)
Writing library                          : x264 core 120
Encoding settings                        : cabac=1 / ref=4 / deblock=1:0:0 / analyse=0x3:0x113 / me=umh / subme=7 / psy=0 / mixed_ref=1 / me_range=16 / chroma_me=1 / trellis=1 / 8x8dct=1 / cqm=0 / deadzone=21,11 / fast_pskip=0 / chroma_qp_offset=0 / threads=48 / sliced_threads=0 / nr=0 / decimate=1 / interlaced=0 / bluray_compat=0 / constrained_intra=0 / bframes=16 / b_pyramid=2 / b_adapt=1 / b_bias=0 / direct=3 / weightb=1 / open_gop=0 / weightp=2 / keyint=300 / keyint_min=25 / scenecut=40 / intra_refresh=0 / rc=2pass / mbtree=0 / bitrate=3000 / ratetol=1.0 / qcomp=0.60 / qpmin=10 / qpmax=51 / qpstep=4 / cplxblur=20.0 / qblur=0.5 / ip_ratio=1.40 / pb_ratio=1.30 / aq=1:1.00
Language                                 : English
Encoded date                             : UTC 2013-08-09 19:08:41
Tagged date                              : UTC 2013-08-09 19:08:41

Audio
ID                                       : 2
Format                                   : AAC
Format/Info                              : Advanced Audio Codec
Format profile                           : LC
Codec ID                                 : 40
Duration                                 : 37mn 16s
Bit rate mode                            : Constant
Bit rate                                 : 128 Kbps
Channel(s)                               : 2 channels
Channel positions                        : Front: L R
Sampling rate                            : 44.1 KHz
Compression mode                         : Lossy
Stream size                              : 34.1 MiB (4%)
Language                                 : English
Encoded date                             : UTC 2013-08-09 19:08:41
Tagged date                              : UTC 2013-08-09 19:08:41


http://i73.fastpic.ru/big/2015/1116/97/66f81d6864bbd222c49695b04a148397.gif http://i73.fastpic.ru/big/2015/1116/4d/36638877996ac0382d14a7b877afe54d.gif
http://i67.fastpic.ru/big/2015/1116/d1/5a4a323271090dd90f7402dea4c379d1.gif http://i67.fastpic.ru/big/2015/1116/8d/c08acf0d9c99bbc11fa9e42e60d1458d.gif


http://i65.fastpic.ru/big/2015/1116/78/f1e742a76bf9cf4a06ad6bee6a737378.jpg
Размер836.07 MB (876,687,505 байт)
Скачать Атака сисек - Alura Jenson & Karen Fisher

:: Отзывы



Отзывы отсутствуют.

 :: Отзывов нет
РЕГИСТРАЦИЯ.

Смотрите бесплатное порно или эротику

footerLeft
Информация для правообладателей На ёгли вы скачаете порно, бесплатные фильмы, а также новинки кино. Все это бесплатно и без смс.