Cкачать бесплатно фильмы.
Поиск фильмов
Log Pass забыли?
  Бесплатные фильмы
Скачать Африканская сперма во французской пизде - Eva Karera
КатегорияCreampies / Зрелые / Межрассовое / Груди
Похожие фильмы



Похожие онлайн фильмы
Постер фильма Африканская сперма во французской пизде - Eva Karera
Африканская сперма во французской пизде - Eva Karera

Обзор



Браток ебет куклу с большими сисями и кончает ей в писю


General
Complete name                            : C:UsersUserDownloadsEva Karera.wmv
Format                                   : Windows Media
File size                                : 337 MiB
Duration                                 : 22mn 50s
Overall bit rate                         : 2 064 Kbps
Maximum Overall bit rate                 : 1 996 Kbps
Encoded date                             : UTC 1970-01-01 00:00:00.000
WM/EncodingSettings                      : Lavf54.61.104

Video
ID                                       : 1
Format                                   : VC-1
Format profile                           : Main
Codec ID                                 : WMV3
Codec ID/Info                            : Windows Media Video 9
Codec ID/Hint                            : WMV3
Duration                                 : 22mn 50s
Bit rate                                 : 1 845 Kbps
Width                                    : 640 pixels
Height                                   : 480 pixels
Display aspect ratio                     : 4:3
Frame rate                               : 29.970 fps
Color space                              : YUV
Chroma subsampling                       : 4:2:0
Bit depth                                : 8 bits
Scan type                                : Progressive
Compression mode                         : Lossy
Bits/(Pixel*Frame)                       : 0.200
Stream size                              : 301 MiB (89%)

Audio
ID                                       : 2
Format                                   : WMA
Format version                           : Version 2
Codec ID                                 : 161
Codec ID/Info                            : Windows Media Audio
Description of the codec                 : Windows Media Audio V8
Duration                                 : 22mn 50s
Bit rate                                 : 128 Kbps
Channel(s)                               : 2 channels
Sampling rate                            : 44.1 KHz
Bit depth                                : 16 bits
Stream size                              : 20.9 MiB (6%)


http://i73.fastpic.ru/thumb/2015/1031/8f/4930d2430795cd6dbf1ef1e8d84df28f.jpeg http://i73.fastpic.ru/thumb/2015/1031/1e/be6feb01ba41bd76ed851e58c3db9a1e.jpeg http://i73.fastpic.ru/thumb/2015/1031/91/646b3fd9d64554f4b33e36f1d5478391.jpeg http://i73.fastpic.ru/thumb/2015/1031/24/9be5d811e7d00032ec5634c87e322024.jpeg
Размер337.14 MB (353,512,998 байт)
Скачать Африканская сперма во французской пизде - Eva Karera

:: ОТЗЫВЫ


button_offline Отзыв от gogiss
avatar 13788

не сперма а вафли! автор, исправь...

button_offline Отзыв от porno zvezda
avatar 864984

:-P :w00t: :w00t: :w00t: :w00t:

РЕГИСТРАЦИЯ.

Смотрите бесплатное порно или эротику

footerLeft
Информация для правообладателей На ёгли вы скачаете порно, бесплатные фильмы, а также новинки кино. Все это бесплатно и без смс.