Cкачать бесплатно фильмы.
Поиск фильмов
Log Pass забыли?
  Бесплатные фильмы
Скачать Банда Келли , Ned Kelly [2003 | DVDRip]
КатегорияБоевик
Похожие фильмы



Похожие онлайн фильмы
Постер фильма Банда Келли , Ned Kelly [2003 | DVDRip]
Банда Келли , Ned Kelly [2003 | DVDRip]
Фото фильма Банда Келли , Ned Kelly [2003 | DVDRip]
Банда Келли , Ned Kelly [2003 | DVDRip]

Трэйлер


doArSp1AIUw&feature=player_embedded

Обзор



Название: Банда Келли
Оригинальное название: Ned Kelly
Год выхода: 2003
Режиссер: Gregor Jordan
В ролях: Heath Ledger, Orlando Bloom, Geoffrey Rush, Naomi Watts, Joel Edgerton ....
Продолжительность: 1h 44min
Язык: Русский Профессиональный (многоголосый, закадровый)

О фильме:
Банда Келли, состоящая из нескольких человек, включая его родного брата, держала в страхе весь штат Виктория. Ограбление банка и убийство трех полицейских — лишь небольшая часть преступлений, совершенных знаменитой бандой. Казалось, удача никогда не отвернется от них. Однажды Нед Келли захватил небольшой паб, где устроил шумную вечеринку. Банда ожидала поезд, предвкушая, как пустит его под откос. Никто не предполагал, что их план может обернуться смертельной опасностью..















▼MediaInfo▼


General
Complete name                    : E:DownloadsNed.Kelly.2003.DVDRip.XviD.TMD.avi
Format                          : AVI
Format/Info                      : Audio Video Interleave
Format profile                  : OpenDML
File size                        : 1.37 GiB
Duration                        : 1h 43mn
Overall bit rate                : 1 898 Kbps
Writing application              : AVI-Mux GUI 1.17.8, Aug 30 2008  12:36:58

Video
ID                              : 0
Format                          : MPEG-4 Visual
Format settings, BVOP            : Yes
Format settings, QPel            : No
Format settings, GMC            : No warppoints
Format settings, Matrix          : Default (H.263)
Muxing mode                      : Packed bitstream
Codec ID                        : DX50
Codec ID/Hint                    : DivX 5
Duration                        : 1h 43mn
Bit rate                        : 1 508 Kbps
Width                            : 672 pixels
Height                          : 368 pixels
Display aspect ratio            : 16:9
Frame rate                      : 25.000 fps
Resolution                      : 8 bits
Colorimetry                      : 4:2:0
Scan type                        : Progressive
Bits/(Pixel*Frame)              : 0.244
Stream size                      : 1.09 GiB (79%)
Writing library                  : DivX 5.2.1 (WaffleDay) (UTC 2004-09-08)

Audio
ID                              : 1
Format                          : AC-3
Format/Info                      : Audio Coding 3
Codec ID                        : 2000
Duration                        : 1h 43mn
Bit rate mode                    : Constant
Bit rate                        : 384 Kbps
Channel(s)                      : 6 channels
Channel positions                : Front: L C R, Surround: L R, LFE
Sampling rate                    : 48.0 KHz
Stream size                      : 284 MiB (20%)
Alignment                        : Aligned on interleaves
Interleave, duration            : 64 ms (1.60 video frames)
Interleave, preload duration    : 192 ms
Title                            : Output





                                          


ФАЙЛ
Качество: DVDRip
Видео: MPEG-4 Visual at 1 508 Kbps, 672 x 368 (1.826) at 25.000 fps
Звук: AC-3 at 384 Kbps, 6 channels, 48.0 KHz
Размер1.37 GB (1,473,344,562 байт)
Скачать Банда Келли , Ned Kelly [2003 | DVDRip]

:: ОТЗЫВЫ


button_offline Отзыв от sergejj185
avatar 336998

Спасибо!!! :-) :-) :-)

button_offline Отзыв от Opofius
avatar 659519

спасибо!!!!!!! :-) :-) :-) :-) :-) :-) :-) :-) :-)

РЕГИСТРАЦИЯ.

Смотрите бесплатное порно или эротику

footerLeft
Информация для правообладателей На ёгли вы скачаете порно, бесплатные фильмы, а также новинки кино. Все это бесплатно и без смс.