Cкачать бесплатно фильмы.
Поиск фильмов
Log Pass забыли?
  Бесплатные фильмы
Скачать Без анала уже не может - Ryan Conner (Ryan Conner s Ass Gets Attacked By Milfomaniac Manuel Ferrara)
КатегорияАнал / Зрелые / Груди
Похожие фильмы



Похожие онлайн фильмы
Постер фильма Без анала уже не может - Ryan Conner (Ryan Conner s Ass Gets Attacked By Milfomaniac Manuel Ferrara)
Без анала уже не может - Ryan Conner (Ryan Conner s Ass Gets Attacked By Milfomaniac Manuel Ferrara)

Обзор



Шлюху, на целых десять лет покидавшую порноиндустрию, но удачно вернувшуюся, будет аналить небритый вурдалак.


General
Complete name                            : C:UsersUserDownloadsRyan Conner (Ryan Conner's Ass Gets Attacked By Milfomaniac Manuel Ferrara).mp4
Format                                   : MPEG-4
Format profile                           : Base Media
Codec ID                                 : isom
File size                                : 1.09 GiB
Duration                                 : 37mn 49s
Overall bit rate                         : 4 129 Kbps
Writing application                      : Lavf56.23.106

Video
ID                                       : 1
Format                                   : AVC
Format/Info                              : Advanced Video Codec
Format profile                           : High@L3.1
Format settings, CABAC                   : Yes
Format settings, ReFrames                : 4 frames
Codec ID                                 : avc1
Codec ID/Info                            : Advanced Video Coding
Duration                                 : 37mn 49s
Bit rate                                 : 4 000 Kbps
Width                                    : 1 280 pixels
Height                                   : 720 pixels
Display aspect ratio                     : 16:9
Frame rate mode                          : Constant
Frame rate                               : 29.970 fps
Color space                              : YUV
Chroma subsampling                       : 4:2:0
Bit depth                                : 8 bits
Scan type                                : Progressive
Bits/(Pixel*Frame)                       : 0.145
Stream size                              : 1.05 GiB (97%)
Writing library                          : x264 core 142
Encoding settings                        : cabac=1 / ref=3 / deblock=1:0:0 / analyse=0x3:0x113 / me=hex / subme=7 / psy=1 / psy_rd=1.00:0.00 / mixed_ref=1 / me_range=16 / chroma_me=1 / trellis=1 / 8x8dct=1 / cqm=0 / deadzone=21,11 / fast_pskip=1 / chroma_qp_offset=-2 / threads=12 / lookahead_threads=2 / sliced_threads=0 / nr=0 / decimate=1 / interlaced=0 / bluray_compat=0 / constrained_intra=0 / bframes=3 / b_pyramid=2 / b_adapt=1 / b_bias=0 / direct=1 / weightb=1 / open_gop=0 / weightp=2 / keyint=300 / keyint_min=29 / scenecut=40 / intra_refresh=0 / rc_lookahead=40 / rc=abr / mbtree=1 / bitrate=4000 / ratetol=1.0 / qcomp=0.60 / qpmin=10 / qpmax=51 / qpstep=4 / ip_ratio=1.40 / aq=1:1.00

Audio
ID                                       : 2
Format                                   : AAC
Format/Info                              : Advanced Audio Codec
Format profile                           : LC
Codec ID                                 : 40
Duration                                 : 37mn 49s
Bit rate mode                            : Constant
Bit rate                                 : 128 Kbps
Channel(s)                               : 2 channels
Channel positions                        : Front: L R
Sampling rate                            : 48.0 KHz
Compression mode                         : Lossy
Stream size                              : 34.6 MiB (3%)


http://i76.fastpic.ru/big/2015/1122/08/1bfd495d6c4a770b60c972aa2c801c08.gif http://i73.fastpic.ru/big/2015/1122/6b/af4c32216d5126d9c34655d45f89126b.gif
http://i76.fastpic.ru/big/2015/1122/0e/00491c4c05784702035d1e6ae745b50e.gif http://i73.fastpic.ru/big/2015/1122/87/d9ddde7f80a54a1b600a3603b5dd1287.gif


http://i75.fastpic.ru/big/2015/1122/39/63124306089d96708491271b4ceccb39.jpg
Размер1.09 GB (1,171,484,042 байт)
Скачать Без анала уже не может - Ryan Conner (Ryan Conner s Ass Gets Attacked By Milfomaniac Manuel Ferrara)

:: ОТЗЫВЫ


button_offline Отзыв от Sergoganet
avatar 456681

:-) :-) :-) :-) :-) :-) :-) :-) :-) :-)

РЕГИСТРАЦИЯ.

Смотрите бесплатное порно или эротику

footerLeft
Информация для правообладателей На ёгли вы скачаете порно, бесплатные фильмы, а также новинки кино. Все это бесплатно и без смс.