Cкачать бесплатно фильмы.
Поиск фильмов
Log Pass забыли?
  Бесплатные фильмы
Скачать Белая Грязная Шлюха 38 - Amber Rayne is a White Trash Whore 38
КатегорияЖёсткое / Анал / Орал / Оргия / Межрассовое / HD качество
Похожие фильмы



Похожие онлайн фильмы
Постер фильма Белая Грязная Шлюха 38 - Amber Rayne is a White Trash Whore 38
Белая Грязная Шлюха 38 - Amber Rayne is a White Trash Whore 38
Фото фильма Белая Грязная Шлюха 38 - Amber Rayne is a White Trash Whore 38
Белая Грязная Шлюха 38 - Amber Rayne is a White Trash Whore 38

Обзор



Год производства: 2008 Страна: USA
Жанр: Gonzo, Gangbang, Anal, DP, Straight
Продолжительность: 01h 54min
Режиссер: N/A
Студия: JM Productions

В ролях:
Allysin Chaynes ? Amber Rayne

Описание:
Amber Rayne takes on tons of black cock for your viewing delight! Also features a special comeback appearance by Allysin Chaynes! Wow

Качество видео: Blu-Ray
Видео: VC-1, 1440 x 1080i, 15.6 Mbps, 29.97 fps
Аудио: AC3, 192 Kbps, 48.0 kHz, 2 channels



Media info


eneral
ID                               : 0
Complete name                    : AMBER_RAYNE_IS_A_WHT_TRSH_W_38BDMVSTREAM�0001.m2ts
Format                           : BDAV
Format/Info                      : Blu-ray Video
File size                        : 13.2 GiB
Duration                         : 1h 54mn
Overall bit rate                 : 16.5 Mbps
Maximum Overall bit rate         : 48.0 Mbps

Video
ID                               : 4113 (0x1011)
Menu ID                          : 1 (0x1)
Format                           : VC-1
Format profile                   : AP@L3
Codec ID                         : 234
Duration                         : 1h 54mn
Bit rate                         : 15.6 Mbps
Width                            : 1 440 pixels
Height                           : 1 080 pixels
Display aspect ratio             : 2.000
Frame rate                       : 29.970 fps
Chroma subsampling               : 4:2:0
Bit depth                        : 8 bits
Scan type                        : Interlaced
Scan order                       : Top Field First
Bits/(Pixel*Frame)               : 0.336
Stream size                      : 12.6 GiB (95%)

Audio
ID                               : 4352 (0x1100)
Menu ID                          : 1 (0x1)
Format                           : AC-3
Format/Info                      : Audio Coding 3
Mode extension                   : CM (complete main)
Codec ID                         : 129
Duration                         : 1h 54mn
Bit rate mode                    : Constant
Bit rate                         : 192 Kbps
Channel(s)                       : 2 channels
Channel positions                : Front: L R
Sampling rate                    : 48.0 KHz
Bit depth                        : 16 bits
Stream size                      : 158 MiB (1%)

http://i41.fastpic.ru/big/2012/0816/01/b5b278e25759d387a8c95654a7496301.jpg
http://i41.fastpic.ru/big/2012/0816/b2/568b583a7edc5d5a16d40a25ecd452b2.png
http://i40.fastpic.ru/big/2012/0816/a2/86f8209d1e0f438a1c229fa53b2d49a2.png
http://i40.fastpic.ru/big/2012/0816/81/381e754c9dd8a6551508c890faa68481.png
http://i42.fastpic.ru/big/2012/0816/0f/5559ec2c9a16330ad16691b9c010420f.png
http://i43.fastpic.ru/big/2012/0816/bf/d194caf6ced054ffa673e219742694bf.png
http://i42.fastpic.ru/big/2012/0816/92/73601427b449aa08d8b6b5aca57b5d92.png
http://i42.fastpic.ru/big/2012/0816/4a/60f2096c3977f89b242de2a1e28a8d4a.jpg
Размер14.88 GB (15,975,151,236 байт)
Скачать Белая Грязная Шлюха 38 - Amber Rayne is a White Trash Whore 38
Файлы
[Посмотреть список]
82 файлы

:: ОТЗЫВЫ


button_offline Отзыв от TraXer
avatar 269323

:-D :-D :-D :-D :-D :-D :-D

button_offline Отзыв от pasha74_74
avatar 743098

а когда будет "Чёрная " грязная  Шлюха? ;-) :-D

button_offline Отзыв от philoniy
avatar 434105

каким плеером смотреть эту хрень?! :-/

button_offline Отзыв от sergej700
avatar 369212

ну и как это смотреть

button_offline Отзыв от стрелок
avatar 323823

качество воспроизведения говно :sly:

button_offline Отзыв от hair09
avatar 730598

мля... жалко потраченный трафик...

button_offline Отзыв от hair09
avatar 730598

:shit: :shit: :shit: :shit: :shit: это афтору - смотреть это как?????

button_offline Отзыв от SvenVault
avatar 662346

спс :w00t: :w00t: :-) 8-)

РЕГИСТРАЦИЯ.

Смотрите бесплатное порно или эротику

footerLeft
Информация для правообладателей На ёгли вы скачаете порно, бесплатные фильмы, а также новинки кино. Все это бесплатно и без смс.