Cкачать бесплатно фильмы.
Поиск фильмов
Log Pass забыли?
  Бесплатные фильмы
Скачать Бильярдная блядь - Vanessa Bella (Mother Lode)
КатегорияЖёсткое / Зрелые / Анал / Оргия / Груди
Похожие фильмы



Похожие онлайн фильмы
Постер фильма Бильярдная блядь - Vanessa Bella (Mother Lode)
Бильярдная блядь - Vanessa Bella (Mother Lode)

Обзор



Парни играли в бильярд, но подошедшая сочная шалава перевернула все их планы - они стали загонять не шары в лузы на столе, а своими куями проперли дамочку.

http://thumbnails116.imagebam.com/50460/59a6d2504598700.jpg http://thumbnails116.imagebam.com/50460/dd3e92504598701.jpg http://thumbnails115.imagebam.com/50460/b4fbf1504598702.jpg http://thumbnails115.imagebam.com/50460/78ed10504598703.jpg http://thumbnails116.imagebam.com/50460/c46d3d504598704.jpg http://thumbnails116.imagebam.com/50460/6cf552504598706.jpg http://thumbnails116.imagebam.com/50460/37a9e4504598707.jpg http://thumbnails115.imagebam.com/50460/dfcd65504598709.jpg

General
Complete name                  : C:UsersUserDownloadsAvsPhelpVanessa Bella (Mother Lode).flv
Format                         : Flash Video
File size                      : 115 MiB
Duration                       : 31mn 47s
Overall bit rate               : 505 Kbps
Tagged date                    : UTC 2014-02-19 21:35:09
Writing application            : Lavf54.6.100
Tagging application            : flvtool++ (Facebook, Motion project, dweatherford)

Video
Format                         : AVC
Format/Info                    : Advanced Video Codec
Format profile                 : High@L3.0
Format settings, CABAC         : Yes
Format settings, ReFrames      : 5 frames
Codec ID                       : 7
Duration                       : 31mn 47s
Bit rate                       : 400 Kbps
Width                          : 544 pixels
Height                         : 408 pixels
Display aspect ratio           : 4:3
Frame rate mode                : Constant
Frame rate                     : 25.000 fps
Color space                    : YUV
Chroma subsampling             : 4:2:0
Bit depth                      : 8 bits
Scan type                      : Progressive
Bits/(Pixel*Frame)             : 0.072
Stream size                    : 92.3 MiB (80%)
Writing library                : x264 core 124
Encoding settings              : cabac=1 / ref=5 / deblock=1:-1:-1 / analyse=0x3:0x113 / me=umh / subme=8 / psy=1 / psy_rd=1.00:0.15 / mixed_ref=1 / me_range=16 / chroma_me=1 / trellis=1 / 8x8dct=1 / cqm=0 / deadzone=21,11 / fast_pskip=1 / chroma_qp_offset=-3 / threads=4 / sliced_threads=0 / nr=0 / decimate=1 / interlaced=0 / bluray_compat=0 / constrained_intra=0 / bframes=3 / b_pyramid=2 / b_adapt=2 / b_bias=0 / direct=3 / weightb=1 / open_gop=0 / weightp=2 / keyint=25 / keyint_min=2 / scenecut=40 / intra_refresh=0 / rc_lookahead=25 / rc=abr / mbtree=1 / bitrate=400 / ratetol=1.0 / qcomp=0.60 / qpmin=2 / qpmax=50 / qpstep=4 / ip_ratio=1.40 / aq=1:1.00

Audio
Format                         : AAC
Format/Info                    : Advanced Audio Codec
Format profile                 : LC
Codec ID                       : 10
Duration                       : 31mn 47s
Bit rate                       : 93.8 Kbps
Channel(s)                     : 2 channels
Channel positions              : Front: L R
Sampling rate                  : 44.1 KHz
Compression mode               : Lossy
Delay relative to video        : 57ms
Stream size                    : 22.3 MiB (19%)

Размер114.88 MB (120,456,455 байт)
Скачать Бильярдная блядь - Vanessa Bella (Mother Lode)

:: Отзывы



Отзывы отсутствуют.

 :: Отзывов нет
РЕГИСТРАЦИЯ.

Смотрите бесплатное порно или эротику

footerLeft
Информация для правообладателей На ёгли вы скачаете порно, бесплатные фильмы, а также новинки кино. Все это бесплатно и без смс.