Cкачать бесплатно фильмы.
Поиск фильмов
Log Pass забыли?
  Бесплатные фильмы
Скачать Блонды любят дуплиться - Britney Amber (Rear View 4)
КатегорияОргия / Анал / Груди
Похожие фильмы



Похожие онлайн фильмы
Постер фильма Блонды любят дуплиться - Britney Amber (Rear View 4)
Блонды любят дуплиться - Britney Amber (Rear View 4)

Обзор



Шлюха принимает в себя одновременно два хуя


General
Complete name                            : C:UsersUserDownloadsBritney Amber (Rear View 4).mp4
Format                                   : MPEG-4
Format profile                           : Base Media
Codec ID                                 : isom
File size                                : 401 MiB
Duration                                 : 30mn 7s
Overall bit rate                         : 1 862 Kbps
Encoded date                             : UTC 2014-03-25 15:45:25
Tagged date                              : UTC 2014-03-25 15:45:25

Video
ID                                       : 1
Format                                   : AVC
Format/Info                              : Advanced Video Codec
Format profile                           : Baseline@L3.0
Format settings, CABAC                   : No
Format settings, ReFrames                : 2 frames
Codec ID                                 : avc1
Codec ID/Info                            : Advanced Video Coding
Duration                                 : 30mn 7s
Source duration                          : 30mn 7s
Bit rate                                 : 1 651 Kbps
Width                                    : 720 pixels
Height                                   : 404 pixels
Display aspect ratio                     : 16:9
Frame rate mode                          : Constant
Frame rate                               : 29.970 fps
Color space                              : YUV
Chroma subsampling                       : 4:2:0
Bit depth                                : 8 bits
Scan type                                : Progressive
Bits/(Pixel*Frame)                       : 0.189
Stream size                              : 356 MiB (89%)
Source stream size                       : 373 MiB (93%)
Language                                 : English
Tagged date                              : UTC 2014-03-25 15:45:58

Audio
ID                                       : 2
Format                                   : AAC
Format/Info                              : Advanced Audio Codec
Format profile                           : LC
Codec ID                                 : 40
Duration                                 : 30mn 7s
Bit rate mode                            : Constant
Bit rate                                 : 128 Kbps
Channel(s)                               : 2 channels
Channel positions                        : Front: L R
Sampling rate                            : 48.0 KHz
Compression mode                         : Lossy
Stream size                              : 27.6 MiB (7%)
Language                                 : English
Tagged date                              : UTC 2014-03-25 15:45:58


http://i65.fastpic.ru/big/2015/1121/69/204470aa829306ae969d5427d9d66269.gif http://i67.fastpic.ru/big/2015/1121/c7/23fa020f08e498fa3daf30296a44e7c7.gif
http://i66.fastpic.ru/big/2015/1121/b2/ab07513945ee426117984a71a9c489b2.gif http://i66.fastpic.ru/big/2015/1121/39/d620e8be14f30a5bd787702fdba35d39.gif
http://i75.fastpic.ru/big/2015/1121/d0/4b42c8b1c607a3e5d4a1ecf57ef465d0.gif http://i65.fastpic.ru/big/2015/1121/31/e34305f19c04534a479a3a4744b29431.gif
http://i67.fastpic.ru/big/2015/1121/da/c83f6cb83e64d08232e8a8ee716711da.gif http://i65.fastpic.ru/big/2015/1121/3a/6bfb3ab5c65cf45f82675347b0da833a.gif


http://i74.fastpic.ru/big/2015/1121/da/23d2b49474c8db53dd4c0686346009da.jpg
Размер401.22 MB (420,704,717 байт)
Скачать Блонды любят дуплиться - Britney Amber (Rear View 4)

:: ОТЗЫВЫ


button_offline Отзыв от porno zvezda
avatar 864984

:w00t: :w00t: :w00t: :w00t: :w00t: :w00t: :w00t: :w00t: :w00t:

РЕГИСТРАЦИЯ.

Смотрите бесплатное порно или эротику

footerLeft
Информация для правообладателей На ёгли вы скачаете порно, бесплатные фильмы, а также новинки кино. Все это бесплатно и без смс.