Cкачать бесплатно фильмы.
Поиск фильмов
Log Pass забыли?
  Бесплатные фильмы
Скачать Блядь высшей категории - Claudia Ferrari
КатегорияCreampies / Груди
Похожие фильмы



Похожие онлайн фильмы
Постер фильма Блядь высшей категории - Claudia Ferrari
Блядь высшей категории - Claudia Ferrari

Обзор



Клаву, что за феррари продала пизду и жопу, туда и отъебут, туда и кончат


General
Complete name                            : C:UsersUserDownloadsClaudia Ferrari.mp4
Format                                   : MPEG-4
Format profile                           : Base Media
Codec ID                                 : isom
File size                                : 85.9 MiB
Duration                                 : 25mn 19s
Overall bit rate mode                    : Variable
Overall bit rate                         : 474 Kbps
Movie name                               : allinternal.com
Performer                                : allinternal.com
Writing application                      : Lavf54.59.106
Copyright                                : allinternal.com

Video
ID                                       : 1
Format                                   : AVC
Format/Info                              : Advanced Video Codec
Format profile                           : Baseline@L3.0
Format settings, CABAC                   : No
Format settings, ReFrames                : 3 frames
Codec ID                                 : avc1
Codec ID/Info                            : Advanced Video Coding
Duration                                 : 25mn 19s
Bit rate                                 : 340 Kbps
Width                                    : 480 pixels
Height                                   : 360 pixels
Display aspect ratio                     : 4:3
Frame rate mode                          : Constant
Frame rate                               : 25.000 fps
Color space                              : YUV
Chroma subsampling                       : 4:2:0
Bit depth                                : 8 bits
Scan type                                : Progressive
Bits/(Pixel*Frame)                       : 0.079
Stream size                              : 61.7 MiB (72%)
Writing library                          : x264 core 129
Encoding settings                        : cabac=0 / ref=3 / deblock=1:0:0 / analyse=0x1:0x111 / me=hex / subme=7 / psy=1 / psy_rd=1.00:0.00 / mixed_ref=1 / me_range=16 / chroma_me=1 / trellis=1 / 8x8dct=0 / cqm=0 / deadzone=21,11 / fast_pskip=1 / chroma_qp_offset=-2 / threads=24 / lookahead_threads=4 / sliced_threads=0 / nr=0 / decimate=1 / interlaced=0 / bluray_compat=0 / constrained_intra=0 / bframes=0 / weightp=0 / keyint=250 / keyint_min=25 / scenecut=40 / intra_refresh=0 / rc_lookahead=40 / rc=abr / mbtree=1 / bitrate=340 / ratetol=1.0 / qcomp=0.60 / qpmin=0 / qpmax=69 / qpstep=4 / vbv_maxrate=10000 / vbv_bufsize=10000 / nal_hrd=none / ip_ratio=1.40 / aq=1:1.00

Audio
ID                                       : 2
Format                                   : AAC
Format/Info                              : Advanced Audio Codec
Format profile                           : LC
Codec ID                                 : 40
Duration                                 : 25mn 19s
Bit rate mode                            : Variable
Bit rate                                 : 128 Kbps
Maximum bit rate                         : 10 000 Kbps
Channel(s)                               : 2 channels
Channel positions                        : Front: L R
Sampling rate                            : 44.1 KHz
Compression mode                         : Lossy
Stream size                              : 23.2 MiB (27%)


http://i74.fastpic.ru/thumb/2015/1105/11/b44853c5b42772f28202e81a86fda811.jpeg http://i74.fastpic.ru/thumb/2015/1105/80/6ca0d4f062a0a3b3e279563376272680.jpeg http://i74.fastpic.ru/thumb/2015/1105/00/34d93cf38990c1382d4e5051824d9a00.jpeg http://i74.fastpic.ru/thumb/2015/1105/dc/5656b7e761a6e2ae5b77f5f7309320dc.jpeg
Размер85.86 MB (90,029,962 байт)
Скачать Блядь высшей категории - Claudia Ferrari

:: ОТЗЫВЫ


button_offline Отзыв от Papachka_Elf
avatar 393629

:w00t: :-D :-D :-D :-D :w00t: :w00t: ;-)

button_offline Отзыв от asdfaserer
avatar 869855

:w00t: :w00t: :w00t:

РЕГИСТРАЦИЯ.

Смотрите бесплатное порно или эротику

footerLeft
Информация для правообладателей На ёгли вы скачаете порно, бесплатные фильмы, а также новинки кино. Все это бесплатно и без смс.