Cкачать бесплатно фильмы.
Поиск фильмов
Log Pass забыли?
  Бесплатные фильмы
Скачать Больше, чем любовь , A Lot Like Love 720p [2005 | HDTV]
КатегорияКомедия / Драма
Похожие фильмы



Похожие онлайн фильмы
Постер фильма Больше, чем любовь , A Lot Like Love 720p [2005 | HDTV]
Больше, чем любовь ,  A Lot Like Love 720p [2005 | HDTV]
Фото фильма Больше, чем любовь , A Lot Like Love 720p [2005 | HDTV]
Больше, чем любовь ,  A Lot Like Love 720p [2005 | HDTV]

Трэйлер


MRPr34vEbC8&feature=player_embedded

Обзор



Название: Больше, чем любовь
Оригинальное название:  A Lot Like Love 720p
Год выхода: 2005
Режиссер: Nigel Cole
В ролях:  Аманда Пит, Эштон Катчер, Тэрин Мэннинг, Айми Гарсиа, Ли Гарлингтон, Берди М. Хэйл, Тайрон Джордано, Мелисса ван дер Шифф, Тереза Спрюилл, Джеймс Рид
Продолжительность: 01:42:29
Язык: Русский Профессиональный (полное дублирование)

О фильме:
«There's nothing better than a great romance... to ruin a perfectly good friendship.»

Молодой человек и девушка знакомятся в самолете, но вскоре расстаются. В течение семи последующих лет они то встречаются, то расстаются вновь. И только позже они понимают, что все это время искали друг друга и то, что казалось простой случайностью, на самом деле - любовь...


http://s017.radikal.ru/i400/1112/a8/ff76ca9353fe.gif


http://thumbnails41.imagebam.com/16708/155c28167076599.jpg http://thumbnails67.imagebam.com/16708/c0793c167076602.jpg http://thumbnails27.imagebam.com/16708/581847167076606.jpg http://thumbnails64.imagebam.com/16708/b1a65b167076611.jpg http://thumbnails25.imagebam.com/16708/7cd434167076614.jpg http://thumbnails24.imagebam.com/16708/18b768167076615.jpg http://thumbnails21.imagebam.com/16708/ff41be167076618.jpg http://thumbnails66.imagebam.com/16708/a5e702167076622.jpg


INFO AUDIO

Audio #1
ID                                      : 2
Format                                  : AC-3
Format/Info                              : Audio Coding 3
Mode extension                          : CM (complete main)
Codec ID                                : A_AC3
Duration                                : 1h 42mn
Bit rate mode                            : Constant
Bit rate                                : 384 Kbps
Channel(s)                              : 6 channels
Channel positions                        : Front: L C R, Side: L R, LFE
Sampling rate                            : 48.0 KHz
Bit depth                                : 16 bits
Compression mode                        : Lossy
Stream size                              : 282 MiB (6%)
Title                                    : Dub (R5) AC3 5.1 384 kbps
Language                                : Russian
Default                                  : Yes
Forced                                  : No

Audio #2
ID                                      : 3
Format                                  : AC-3
Format/Info                              : Audio Coding 3
Mode extension                          : CM (complete main)
Codec ID                                : A_AC3
Duration                                : 1h 42mn
Bit rate mode                            : Constant
Bit rate                                : 448 Kbps
Channel(s)                              : 6 channels
Channel positions                        : Front: L C R, Side: L R, LFE
Sampling rate                            : 48.0 KHz
Bit depth                                : 16 bits
Compression mode                        : Lossy
Stream size                              : 328 MiB (7%)
Title                                    : MVO (Tycoon) AC3 5.1 448 kbps
Language                                : Russian
Default                                  : No
Forced                                  : No

Audio #3
ID                                      : 4
Format                                  : AC-3
Format/Info                              : Audio Coding 3
Mode extension                          : CM (complete main)
Codec ID                                : A_AC3
Duration                                : 1h 42mn
Bit rate mode                            : Constant
Bit rate                                : 448 Kbps
Channel(s)                              : 6 channels
Channel positions                        : Front: L C R, Side: L R, LFE
Sampling rate                            : 48.0 KHz
Bit depth                                : 16 bits
Compression mode                        : Lossy
Stream size                              : 328 MiB (7%)
Title                                    : AC3 5.1 448 kbps (from DVD R5)
Language                                : English
Default                                  : No
Forced                                  : No

Audio #4
ID                                      : 5
Format                                  : AC-3
Format/Info                              : Audio Coding 3
Mode extension                          : CM (complete main)
Codec ID                                : A_AC3
Duration                                : 1h 42mn
Bit rate mode                            : Constant
Bit rate                                : 192 Kbps
Channel(s)                              : 2 channels
Channel positions                        : Front: L R
Sampling rate                            : 48.0 KHz
Bit depth                                : 16 bits
Compression mode                        : Lossy
Stream size                              : 141 MiB (3%)
Title                                    : AC3 2.0 192 kbps (from Blu-Ray)
Language                                : English
Default                                  : No
Forced                                  : No

Audio #5
ID                                      : 6
Format                                  : AC-3
Format/Info                              : Audio Coding 3
Mode extension                          : CM (complete main)
Codec ID                                : A_AC3
Duration                                : 1h 42mn
Bit rate mode                            : Constant
Bit rate                                : 192 Kbps
Channel(s)                              : 2 channels
Channel positions                        : Front: L R
Sampling rate                            : 48.0 KHz
Bit depth                                : 16 bits
Compression mode                        : Lossy
Stream size                              : 141 MiB (3%)
Title                                    : Commentary with Director Nigel Cole and Producers Kevin Messick and Armyan Bernstein AC3 2.0 192 kbps
Language                                : English
Default                                  : No
Forced                                  : No


http://s42.radikal.ru/i095/1112/79/d1d67ef78403.gif


http://s011.radikal.ru/i318/1112/05/36b3cd8cfa48.png  


ФАЙЛ
Качество: HDTV
Видео:  1280x696 at 25 fps, x264@L4.1, 2pass, ~4438 kbps avg
Звук: Аудио#1: Russian: 48 kHz, AC3, 3/2 (L,C,R,l,r) + LFE ch, ~384 kbps avg |Дубляж, R5| Аудио#2: Russian: 48 kHz, AC3, 3/2 (L,C,R,l,r) + LFE ch, ~448 kbps avg |Многоголосый закадровый, Tycoon-Studio| Аудио#3: English: 48 kHz, AC3, 3/2 (L,C,R,l,r) + LFE ch, ~448 kbps avg |DVD R5| Аудио#4: English: 48 kHz, AC3, 2/0 (L,R) ch, ~192 kbps avg |Blu-Ray| Аудио#5: English: 48 kHz, AC3, 2/0 (L,R) ch, ~192 kbps avg |Commentary with Director Nigel Cole and Producers Kevin Messick and Armyan Bernstein|Аудио#1: Russian: 48 kHz, AC3, 3/2 (L,C,R,l,r) + LFE ch, ~384 kbps avg |Дубляж, R5| Аудио#2: Russian: 48 kHz, AC3, 3/2 (L,C,R,l,r) + LFE ch, ~448 kbps avg |Многоголосый закадровый, Tycoon-Studio| Аудио#3: English: 48 kHz, AC3, 3/2 (L,C,R,l,r) + LFE ch, ~448 kbps avg |DVD R5| Аудио#4: English: 48 kHz, AC3, 2/0 (L,R) ch, ~192 kbps avg |Blu-Ray| Аудио#5: English: 48 kHz, AC3, 2/0 (L,R) ch, ~192 kbps avg |Commentary with Director Nigel Cole and Producers Kevin Messick and Armyan Bernstein|


Liudi esli vam ne nravitsa atot film to tak i napishite,i ne na4inaete s tupie vaprosi pro razmer, za4em HDTV esli mojno zagruziti DVDRip i tak dalee...Esli vam ne nujin atot film to prosto proijeaite mimo i vseo budet good!
Размер4.37 GB (4,688,639,551 байт)
Скачать Больше, чем любовь , A Lot Like Love 720p [2005 | HDTV]

:: Отзывы



Отзывы отсутствуют.

 :: Отзывов нет
РЕГИСТРАЦИЯ.

Смотрите бесплатное порно или эротику

footerLeft
Информация для правообладателей На ёгли вы скачаете порно, бесплатные фильмы, а также новинки кино. Все это бесплатно и без смс.