Cкачать бесплатно фильмы.
Поиск фильмов
Log Pass забыли?
  Бесплатные фильмы
Скачать Больше чем просто друзья - [x - art] Victoria (More Than Just Friends) [2011 г., teen, 720p]
КатегорияЖёсткое /
Похожие фильмы



Похожие онлайн фильмы
Постер фильма Больше чем просто друзья - [x - art] Victoria (More Than Just Friends) [2011 г., teen, 720p]
Больше чем просто друзья - [x - art] Victoria (More Than Just Friends) [2011 г., teen, 720p]
Фото фильма Больше чем просто друзья - [x - art] Victoria (More Than Just Friends) [2011 г., teen, 720p]
Больше чем просто друзья - [x - art] Victoria (More Than Just Friends) [2011 г., teen, 720p]

Обзор



Format : Windows Media
File size : 397 MiB
Duration : 10mn 56s
Overall bit rate : 5 070 Kbps
Maximum Overall bit rate : 5 128 Kbps
Encoded date : UTC 1970-01-01 00:00:00.000

Video
ID : 2
Format : WMV2
Codec ID : WMV2
Codec ID/Info : Windows Media Video 8
Description of the codec : wmv2
Duration : 10mn 56s
Bit rate : 5 000 Kbps
Width : 1 280 pixels
Height : 720 pixels
Display aspect ratio : 16:9
Frame rate : 29.970 fps
Bit depth : 8 bits
Bits/(Pixel*Frame) : 0.181
Stream size : 391 MiB (99%)

Audio
ID : 1
Format : WMA
Format version : Version 2
Codec ID : 161
Codec ID/Info : Windows Media Audio
Description of the codec : Windows Media Audio V8
Duration : 10mn 56s
Bit rate : 128 Kbps
Channel(s) : 2 channels
Sampling rate : 44.1 KHz
Bit depth : 16 bits
Stream size : 10.0 MiB (3%))





Имя актрисы: Victoria
Название ролика: More Than Just Friends
Подсайт и сайт: x - art

Год производства: 2011 г.
Жанр: teen
Продолжительность: 11 min
Размер396.81 MB (416,084,679 байт)
Скачать Больше чем просто друзья - [x - art] Victoria (More Than Just Friends) [2011 г., teen, 720p]

:: ОТЗЫВЫ


button_offline Отзыв от MasterSexy
avatar 789027

спс!как обычно классный видос! ;-) ;-) ;-)

button_offline Отзыв от Lacr
avatar 284798

Красивое и качественное видео - побольше б таких! :w00t:

button_offline Отзыв от Vitalello
avatar 485

студия х-арт, надо скачать у них обычно телки зачотные

РЕГИСТРАЦИЯ.

Смотрите бесплатное порно или эротику

footerLeft
Информация для правообладателей На ёгли вы скачаете порно, бесплатные фильмы, а также новинки кино. Все это бесплатно и без смс.