Cкачать бесплатно фильмы.
Поиск фильмов
Log Pass забыли?
  Бесплатные фильмы
Скачать Большие сиськи в полицейской форме - Gianna Michaels (Busty Cops On Patrol)
КатегорияГруди / Оргия
Похожие фильмы



Похожие онлайн фильмы
Постер фильма Большие сиськи в полицейской форме - Gianna Michaels (Busty Cops On Patrol)
Большие сиськи в полицейской форме - Gianna Michaels (Busty Cops On Patrol)

Обзор



Сисястые шлюхи заступили в патруль

http://thumbnails116.imagebam.com/50719/ee7d7e507183597.jpg http://thumbnails115.imagebam.com/50719/7e35b3507183600.jpg http://thumbnails115.imagebam.com/50719/4ffcc2507183601.jpg http://thumbnails116.imagebam.com/50719/233f7b507183602.jpg http://thumbnails115.imagebam.com/50719/d58394507183603.jpg

General
Complete name                  : C:UsersUserDownloadsGianna Michaels (Busty Cops On Patrol).avi
Format                         : AVI
Format/Info                    : Audio Video Interleave
Format profile                 : OpenDML
File size                      : 2.42 GiB
Duration                       : 1mn 6s
Overall bit rate               : 313 Mbps

Video
ID                             : 0
Format                         : Fraps
Codec ID                       : FPS1
Duration                       : 1mn 6s
Bit rate                       : 312 Mbps
Width                          : 1 920 pixels
Height                         : 1 080 pixels
Display aspect ratio           : 16:9
Frame rate                     : 30.000 fps
Color space                    : YUV
Bit depth                      : 8 bits
Bits/(Pixel*Frame)             : 5.008
Stream size                    : 2.40 GiB (100%)

Audio
ID                             : 1
Format                         : PCM
Format settings, Endianness    : Little
Format settings, Sign          : Signed
Codec ID                       : 1
Duration                       : 1mn 6s
Bit rate mode                  : Constant
Bit rate                       : 1 536 Kbps
Channel(s)                     : 2 channels
Sampling rate                  : 48.0 KHz
Bit depth                      : 16 bits
Stream size                    : 12.1 MiB (0%)
Alignment                      : Aligned on interleaves
Interleave, duration           : 990 ms (29.69 video frames)

Размер2.42 GB (2,594,523,360 байт)
Скачать Большие сиськи в полицейской форме - Gianna Michaels (Busty Cops On Patrol)

:: ОТЗЫВЫ


button_offline Отзыв от gigel
avatar 305652

counter strike? :sly:

button_offline Отзыв от andrew51
avatar 680149

Вот это поебень. Скоро автор будет размещать "супер мега порно жесть" а в на закачке будет чтоит мультик "котёнок по имени гаФ"

Уже второй раз повёлся, скачал, а там запись игры....

В будущем никогда не буду качать раздачи этого черта.

button_offline Отзыв от nibber
avatar 616946

В бан, ёбаных геймеров!

button_offline Отзыв от grizvold
avatar 326

сгинь нечистая сила!
тут вам не это! 8-)

РЕГИСТРАЦИЯ.

Смотрите бесплатное порно или эротику

footerLeft
Информация для правообладателей На ёгли вы скачаете порно, бесплатные фильмы, а также новинки кино. Все это бесплатно и без смс.