Cкачать бесплатно фильмы.
Поиск фильмов
Log Pass забыли?
  Бесплатные фильмы
Скачать Большое негрито и малая щель - Negrito with big cock and not very big hole of teen 11.05.11 Vitoldi Release
КатегорияМежрассовое / Молодые
Похожие фильмы



Похожие онлайн фильмы
Постер фильма Большое негрито и малая щель - Negrito with big cock and not very big hole of teen 11.05.11 Vitoldi Release
Большое негрито и малая щель - Negrito with big cock and not very big hole of teen 11.05.11 Vitoldi Release

Обзор



Описание:

Негрито с большой писькой плотно засовывает её в как раз не очень большую дырочку тинки

Negrito with big cock and not very big hole of teen 11.05.11 Vitoldi Release

Инфа о видео:

      Format : Windows Media
      File size : 293 MiB
      Duration : 26mn 19s
      Overall bit rate : 1 556 Kbps
      Maximum Overall bit rate : 1 547 Kbps
      Encoded date : UTC 2009-09-11 03:07:45.000
      Writing application : Flip4Mac WMV Export Component for QuickTime (Mac) 2211
   Video #2
      ID : 2
      Format : VC-1
      Format profile : MP
      Codec ID : WMV3
      Codec ID/Info : Windows Media Video 9
      Codec ID/Hint : WMV3
      Description of the codec : Windows Media Video V9 - 720 x 406, 29.97 fps, 1500 kbps (CBR)
      Duration : 26mn 18s
      Bit rate : 1 499 Kbps
      Width : 720 pixels
      Height : 406 pixels
      Display aspect ratio : 16:9
      Frame rate : 29.970 fps
      Resolution : 24 bits
      Scan type : Progressive
      Bits/(Pixel*Frame) : 0.171
      Stream size : 282 MiB (96%)
      Language : English (US)
   Audio #1
      ID : 1
      Format : WMA2
      Codec ID : 161
      Codec ID/Info : Windows Media Audio 2
      Description of the codec : Windows Media Audio V9 Standard - 48 kbps, 44 kHz, 16 bit, Stereo (CBR)
      Duration : 26mn 19s
      Bit rate mode : Constant
      Bit rate : 48.0 Kbps
      Channel(s) : 2 channels
      Sampling rate : 44.1 KHz
      Resolution : 16 bits
      Stream size : 9.04 MiB (3%)
      Language : English (US)

Скрины:
http://pic4you.ru/allimage/y2011/05-11/7830/894870-thumb.jpg
http://pic4you.ru/allimage/y2011/05-11/7830/894871-thumb.jpg
Размер293.55 MB (307,812,745 байт)
Скачать Большое негрито и малая щель - Negrito with big cock and not very big hole of teen 11.05.11 Vitoldi Release
Файлы
[Посмотреть список]
5 файлы

:: Отзывы



Отзывы отсутствуют.

 :: Отзывов нет
РЕГИСТРАЦИЯ.

Смотрите бесплатное порно или эротику

footerLeft
Информация для правообладателей На ёгли вы скачаете порно, бесплатные фильмы, а также новинки кино. Все это бесплатно и без смс.