Cкачать бесплатно фильмы.
Поиск фильмов
Log Pass забыли?
  Бесплатные фильмы
Скачать Большой черный член трахает белую девку - BIG BLACK COCK FUCKING WHITE GIRL
КатегорияМежрассовое
Похожие фильмы



Похожие онлайн фильмы
Постер фильма Большой черный член трахает белую девку - BIG BLACK COCK FUCKING WHITE GIRL
Большой черный член трахает белую девку - BIG BLACK COCK FUCKING WHITE GIRL
Фото фильма Большой черный член трахает белую девку - BIG BLACK COCK FUCKING WHITE GIRL
Большой черный член трахает белую девку - BIG BLACK COCK FUCKING WHITE GIRL

Обзор



Format                           : MPEG-PS
File size                        : 369 MiB
Duration                         : 36mn 29s
Overall bit rate                 : 1 412 Kbps
Writing library                  : encoded by TMPGEnc 4.0 XPress Version. 4.2.3.193

Video
ID                               : 224 (0xE0)
Format                           : MPEG Video
Format version                   : Version 2
Format settings, Matrix          : Default
Duration                         : 36mn 29s
Bit rate mode                    : Variable
Bit rate                         : 1 228 Kbps
Nominal bit rate                 : 1 250 Kbps
Width                            : 512 pixels
Height                           : 288 pixels
Display aspect ratio             : 16:9
Frame rate                       : 29.970 fps
Scan type                        : Progressive
Bits/(Pixel*Frame)               : 0.278
Stream size                      : 321 MiB (87%)
Writing library                  : TMPGEnc XPress 4.2.3.193

Audio
ID                               : 192 (0xC0)
Format                           : MPEG Audio
Format version                   : Version 1
Format profile                   : Layer 2
Duration                         : 36mn 29s
Bit rate mode                    : Constant
Bit rate                         : 128 Kbps
Channel(s)                       : 2 channels
Sampling rate                    : 48.0 KHz
Resolution                       : 16 bits
Stream size                      : 33.4 MiB (9%)

Размер368.59 MB (386,492,416 байт)
Скачать Большой черный член трахает белую девку - BIG BLACK COCK FUCKING WHITE GIRL

:: ОТЗЫВЫ


button_offline Отзыв от dragon4uk
avatar 681730

резинка млин  :-D :-D :-D

button_offline Отзыв от koguta
avatar 381233

опять пластмасса!!!!!!!!!! :shit: :shit: :shit:

РЕГИСТРАЦИЯ.

Смотрите бесплатное порно или эротику

footerLeft
Информация для правообладателей На ёгли вы скачаете порно, бесплатные фильмы, а также новинки кино. Все это бесплатно и без смс.