Cкачать бесплатно фильмы.
Поиск фильмов
Log Pass забыли?
  Бесплатные фильмы
Скачать Бриллиантовая рука , Бриллиантовая рука 720p [1968 | HDTV]
КатегорияБоевик / Комедия
Похожие фильмы



Похожие онлайн фильмы
Постер фильма Бриллиантовая рука , Бриллиантовая рука 720p [1968 | HDTV]
Бриллиантовая рука ,  Бриллиантовая рука 720p [1968 | HDTV]

Трэйлер


dUqA-Us67Wo&feature=player_embedded

Обзор



Название:  Бриллиантовая рука
Оригинальное название:  Бриллиантовая рука 720p
Год выхода: 1968
Режиссер:  Леонид Гайдай
В ролях: Юрий Никулин, Андрей Миронов, Анатолий Папанов, Нина Гребешкова, Станислав Чекан, Владимир Гуляев, Нонна Мордюкова, Светлана Светличная, Роман Филиппов, Григорий Шпигель
Продолжительность: 01:38:20
Язык: Русский Оригинал

О фильме:
«Бриллиантовая рука»


Кинороман из жизни контрабандистов с прологом и эпилогом. В южном городке орудует шайка «валютчиков», возглавляемая Шефом и его помощником Графом. Скромный советский служащий и примерный семьянин Семен Семеныч Горбунков отправляется в зарубежный круиз на теплоходе, на котором также плывет Граф, который должен забрать бриллианты в одном из восточных городов и провезти их в загипсованной руке. Но в силу недоразумения вместо жулика на условленном месте падает ничего не подозревающий Семен Семенович и драгоценный гипс накладывают ему. Вот тут-то все и начинается...


http://s017.radikal.ru/i400/1112/a8/ff76ca9353fe.gif


http://thumbnails63.imagebam.com/16685/e64eba166847742.jpg http://thumbnails25.imagebam.com/16685/1eadb2166847753.jpg http://thumbnails33.imagebam.com/16685/a8870d166847764.jpg http://thumbnails43.imagebam.com/16685/62ad18166847777.jpg http://thumbnails22.imagebam.com/16685/627e0f166847784.jpg http://thumbnails21.imagebam.com/16685/369d4c166847791.jpg http://thumbnails33.imagebam.com/16685/a10651166847796.jpg http://thumbnails39.imagebam.com/16685/5e21fa166847802.jpg


INFO AUDIO
Аудио #1
Идентификатор                    : 2
Формат                          : AC-3
Формат/Информация                : Audio Coding 3
Расширение режима                : CM (complete main)
Идентификатор кодека            : A_AC3
Продолжительность                : 1 ч. 38 м.
Вид битрейта                    : Постоянный
Битрейт                          : 448 Кбит/сек
Каналы                          : 6 каналов
Расположение каналов            : Front: L C R, Side: L R, LFE
Частота                          : 48,0 КГц
Битовая глубина                  : 16 бит
Метод сжатия                    : С потерями
Размер потока                    : 315 Мбайт (5%)
Заголовок                        : AC3
Язык                            : Russian

Аудио #2
Идентификатор                    : 3
Формат                          : DTS
Формат/Информация                : Digital Theater Systems
Идентификатор кодека            : A_DTS
Продолжительность                : 1 ч. 38 м.
Вид битрейта                    : Постоянный
Битрейт                          : 1510 Кбит/сек
Каналы                          : 6 каналов
Расположение каналов            : Front: L C R, Side: L R, LFE
Частота                          : 48,0 КГц
Битовая глубина                  : 24 бит
Метод сжатия                    : С потерями
Размер потока                    : 1,04 Гбайт (17%)
Заголовок                        : DTS
Язык                            : Russian


http://s42.radikal.ru/i095/1112/79/d1d67ef78403.gif


http://s011.radikal.ru/i318/1112/05/36b3cd8cfa48.png  


ФАЙЛ
Качество: HDTV
Видео: AVC, 1280x544 (2.35:1), 23.976 fps, 6 800 Kbps (0.407 bit/pixel)
Звук: Audio #1: AC-3, 48.0 KHz, 6 ch, 448 Kbps, CBR (Russian) Audio #2: DTS, 48.0 KHz, 6 ch, 1 510 Kbps, CBR (Russian)
Размер6.02 GB (6,461,157,266 байт)
Скачать Бриллиантовая рука , Бриллиантовая рука 720p [1968 | HDTV]

:: ОТЗЫВЫ


button_offline Отзыв от KORAGON
avatar 601421

Эээхх.....класика!!! Фильм суперский!!! Автору респект!  :-)

РЕГИСТРАЦИЯ.

Смотрите бесплатное порно или эротику

footerLeft
Информация для правообладателей На ёгли вы скачаете порно, бесплатные фильмы, а также новинки кино. Все это бесплатно и без смс.