Cкачать бесплатно фильмы.
Поиск фильмов
Log Pass забыли?
  Бесплатные фильмы
Скачать Вернулась и снова дает в себя кончать - Alexis Fawx (Wet Pussy In Waiting)
КатегорияCreampies / Зрелые / Груди
Похожие фильмы



Похожие онлайн фильмы
Постер фильма Вернулась и снова дает в себя кончать - Alexis Fawx (Wet Pussy In Waiting)
Вернулась и снова дает в себя кончать - Alexis Fawx (Wet Pussy In Waiting)

Обзор



Шлюху жарить парень, а потом кончает в нее, камера берет это крупным планом


General
Complete name                            : C:UsersUserDownloadsAlexis Fawx (Wet Pussy In Waiting).mp4
Format                                   : MPEG-4
Format profile                           : Base Media
Codec ID                                 : isom
File size                                : 837 MiB
Duration                                 : 33mn 24s
Overall bit rate                         : 3 504 Kbps
Writing application                      : Lavf55.44.100

Video
ID                                       : 1
Format                                   : AVC
Format/Info                              : Advanced Video Codec
Format profile                           : Baseline@L3.1
Format settings, CABAC                   : No
Format settings, ReFrames                : 5 frames
Codec ID                                 : avc1
Codec ID/Info                            : Advanced Video Coding
Duration                                 : 33mn 24s
Bit rate                                 : 3 404 Kbps
Width                                    : 1 280 pixels
Height                                   : 720 pixels
Display aspect ratio                     : 16:9
Frame rate mode                          : Constant
Frame rate                               : 23.976 fps
Color space                              : YUV
Chroma subsampling                       : 4:2:0
Bit depth                                : 8 bits
Scan type                                : Progressive
Bits/(Pixel*Frame)                       : 0.154
Stream size                              : 813 MiB (97%)
Writing library                          : x264 core 142 r2431 a5831aa
Encoding settings                        : cabac=0 / ref=5 / deblock=1:0:0 / analyse=0x1:0x111 / me=umh / subme=8 / psy=1 / psy_rd=1.00:0.00 / mixed_ref=1 / me_range=16 / chroma_me=1 / trellis=1 / 8x8dct=0 / cqm=0 / deadzone=21,11 / fast_pskip=1 / chroma_qp_offset=-2 / threads=2 / lookahead_threads=1 / sliced_threads=0 / nr=0 / decimate=1 / interlaced=0 / bluray_compat=0 / constrained_intra=0 / bframes=0 / weightp=0 / keyint=250 / keyint_min=23 / scenecut=40 / intra_refresh=0 / rc_lookahead=50 / rc=crf / mbtree=1 / crf=18.0 / qcomp=0.60 / qpmin=0 / qpmax=69 / qpstep=4 / ip_ratio=1.40 / aq=1:1.00
Language                                 : English

Audio
ID                                       : 2
Format                                   : AAC
Format/Info                              : Advanced Audio Codec
Format profile                           : LC
Codec ID                                 : 40
Duration                                 : 33mn 24s
Bit rate mode                            : Constant
Bit rate                                 : 96.0 Kbps
Channel(s)                               : 2 channels
Channel positions                        : Front: L R
Sampling rate                            : 48.0 KHz
Compression mode                         : Lossy
Stream size                              : 22.9 MiB (3%)
Language                                 : English


http://i76.fastpic.ru/thumb/2015/1114/de/8689f19369685c9e183674d7d4a321de.jpeg http://i76.fastpic.ru/thumb/2015/1114/ef/07bf6934caf62e71e30ed23a78f374ef.jpeg http://i76.fastpic.ru/thumb/2015/1114/64/e2d6b5c4906c9449934bf9f56c158764.jpeg http://i76.fastpic.ru/thumb/2015/1114/10/17918f20db3d79edb35d59c2bf7d5510.jpeg
Размер837.24 MB (877,914,426 байт)
Скачать Вернулась и снова дает в себя кончать - Alexis Fawx (Wet Pussy In Waiting)

:: Отзывы



Отзывы отсутствуют.

 :: Отзывов нет
РЕГИСТРАЦИЯ.

Смотрите бесплатное порно или эротику

footerLeft
Информация для правообладателей На ёгли вы скачаете порно, бесплатные фильмы, а также новинки кино. Все это бесплатно и без смс.