Cкачать бесплатно фильмы.
Поиск фильмов
Log Pass забыли?
  Бесплатные фильмы
Скачать Вечеринка с кучей деушек.Лёгкая доминация и приятный тон праздника. - Tiffany Tyler - Strip Club Sluts Dominate (2011) HDRip Vitoldi Release 06.05.11
КатегорияМолодые / Любители / Молодые / Орал / Классика / Груди
Похожие фильмы



Похожие онлайн фильмы
Постер фильма Вечеринка с кучей деушек.Лёгкая доминация и приятный тон праздника. - Tiffany Tyler - Strip Club Sluts Dominate (2011) HDRip Vitoldi Release 06.05.11
Вечеринка с кучей деушек.Лёгкая доминация и приятный тон праздника. - Tiffany Tyler - Strip Club Sluts Dominate (2011) HDRip Vitoldi Release 06.05.11

Обзор



Имя актрисы Tiffany Tyler
Название: Strip Club Sluts Dominate
Подсайт и сайт: CrueltyParty.com/PornPros.com
Дата релиза: 4 мая 2011
Жанр: Blowjob, Facial, Big Tits, Amateur, Ass, Blondes, Brunettes, Orgy, Hardcore


Информация о видео:

      Format : Windows Media
      File size : 829 MiB
      Duration : 44mn 9s
      Overall bit rate mode : Constant
      Overall bit rate : 2 626 Kbps
      Maximum Overall bit rate : 2 651 Kbps
      Encoded date : UTC 2011-05-03 22:58:27.544
   Video #2
      ID : 2
      Format : VC-1
      Format profile : MP@HL
      Codec ID : WMV3
      Codec ID/Info : Windows Media Video 9
      Codec ID/Hint : WMV3
      Description of the codec : Windows Media Video 9 - Professional
      Duration : 44mn 6s
      Bit rate mode : Constant
      Bit rate : 2 500 Kbps
      Width : 1 250 pixels
      Height : 702 pixels
      Display aspect ratio : 16:9
      Frame rate : 29.970 fps
      Resolution : 24 bits
      Scan type : Progressive
      Bits/(Pixel*Frame) : 0.095
      Stream size : 789 MiB (95%)
   Audio #1
      ID : 1
      Format : WMA2
      Format profile : L1
      Codec ID : 161
      Codec ID/Info : Windows Media Audio 2
      Description of the codec : Windows Media Audio 9.2 - 128 kbps, 44 kHz, stereo 2-pass CBR
      Duration : 44mn 9s
      Bit rate mode : Constant
      Bit rate : 128 Kbps
      Channel(s) : 2 channels
      Sampling rate : 44.1 KHz
      Resolution : 16 bits
      Stream size : 40.4 MiB (5%)

Описание русское:

Вечеринка с кучей деушек.Лёгкая доминация и приятный тон праздника.


Описание англ:
Having a bra wrapped around his eyes and having a bunch of sluts dominate his cock, this guy was introduced to a real cruelty party! With so much pussy and tits flying around this lucky fucker gets his wildest dreams come true. Getting slapped around and fucked harder by a gang of horny strip clu sluts


http://i20.fastpic.ru/big/2011/0506/9f/56918d25667a3e87aa67d38711ca1a9f.png
http://i20.fastpic.ru/big/2011/0506/82/24485272875d3e46beb13b595857cf82.png
http://i20.fastpic.ru/big/2011/0506/34/747bf10d5ba33f26380d219261f1da34.png
http://i20.fastpic.ru/big/2011/0506/c5/803aa5966975fb76aa2cc7fdb7dd50c5.png
http://i20.fastpic.ru/big/2011/0506/e0/e0b8cac292c71feb9bfc67798296a0e0.png
Размер835.94 MB (876,546,821 байт)
Скачать Вечеринка с кучей деушек.Лёгкая доминация и приятный тон праздника. - Tiffany Tyler - Strip Club Sluts Dominate (2011) HDRip Vitoldi Release 06.05.11
Файлы
[Посмотреть список]
12 файлы

:: ОТЗЫВЫ


button_offline Отзыв от Reder
avatar 239935

А полосы на изображении в правой половине зачем?

button_offline Отзыв от oper25
avatar 623202

Мощно! мне понравилось!.

РЕГИСТРАЦИЯ.

Смотрите бесплатное порно или эротику

footerLeft
Информация для правообладателей На ёгли вы скачаете порно, бесплатные фильмы, а также новинки кино. Все это бесплатно и без смс.