Cкачать бесплатно фильмы.
Поиск фильмов
Log Pass забыли?
  Бесплатные фильмы
Скачать Во все щели - Candi Coxxx (Ramps Up The Speed)
КатегорияОргия / Зрелые / Анал / Груди
Похожие фильмы



Похожие онлайн фильмы
Постер фильма Во все щели - Candi Coxxx (Ramps Up The Speed)
Во все щели - Candi Coxxx (Ramps Up The Speed)

Обзор



Шлюху продули как говорится во все щели - в жопу и пизду


General
Complete name                            : C:UsersUserDownloadsCandi Coxxx (Ramps Up The Speed).mp4
Format                                   : MPEG-4
Format profile                           : Base Media / Version 2
Codec ID                                 : mp42
File size                                : 643 MiB
Duration                                 : 19mn 9s
Overall bit rate mode                    : Variable
Overall bit rate                         : 4 693 Kbps
Encoded date                             : UTC 2014-07-21 16:34:11
Tagged date                              : UTC 2014-07-21 16:34:11
©TIM                                     : 00:00:00:00
©TSC                                     : 30000
©TSZ                                     : 1001

Video
ID                                       : 1
Format                                   : AVC
Format/Info                              : Advanced Video Codec
Format profile                           : Main@L3.1
Format settings, CABAC                   : Yes
Format settings, ReFrames                : 3 frames
Codec ID                                 : avc1
Codec ID/Info                            : Advanced Video Coding
Duration                                 : 19mn 9s
Bit rate mode                            : Variable
Bit rate                                 : 4 500 Kbps
Width                                    : 950 pixels
Height                                   : 540 pixels
Display aspect ratio                     : 16:9
Frame rate mode                          : Constant
Frame rate                               : 29.970 fps
Standard                                 : NTSC
Color space                              : YUV
Chroma subsampling                       : 4:2:0
Bit depth                                : 8 bits
Scan type                                : Progressive
Bits/(Pixel*Frame)                       : 0.293
Stream size                              : 616 MiB (96%)
Language                                 : English
Encoded date                             : UTC 2014-07-21 16:34:11
Tagged date                              : UTC 2014-07-21 16:34:11

Audio
ID                                       : 2
Format                                   : AAC
Format/Info                              : Advanced Audio Codec
Format profile                           : LC
Codec ID                                 : 40
Duration                                 : 19mn 9s
Source duration                          : 19mn 9s
Bit rate mode                            : Variable
Bit rate                                 : 192 Kbps
Maximum bit rate                         : 290 Kbps
Channel(s)                               : 2 channels
Channel positions                        : Front: L R
Sampling rate                            : 48.0 KHz
Compression mode                         : Lossy
Stream size                              : 25.9 MiB (4%)
Source stream size                       : 25.9 MiB (4%)
Language                                 : English
Encoded date                             : UTC 2014-07-21 16:34:11
Tagged date                              : UTC 2014-07-21 16:34:11


http://i65.fastpic.ru/thumb/2015/1104/21/93dd29e536fac34d52d1d315c1ae8321.jpeg http://i65.fastpic.ru/thumb/2015/1104/e3/66079cf353822531f13d9085bc5cfae3.jpeg http://i65.fastpic.ru/thumb/2015/1104/42/36598dbc19a8113a4b66376b10b95d42.jpeg http://i65.fastpic.ru/thumb/2015/1104/54/309614f51f267daaa723b0fb9580f454.jpeg
Размер642.95 MB (674,181,066 байт)
Скачать Во все щели - Candi Coxxx (Ramps Up The Speed)

:: ОТЗЫВЫ


button_offline Отзыв от Hl1kojla
avatar 722321

8-) 8-) 8-) 8-) 8-) 8-) :-D

РЕГИСТРАЦИЯ.

Смотрите бесплатное порно или эротику

footerLeft
Информация для правообладателей На ёгли вы скачаете порно, бесплатные фильмы, а также новинки кино. Все это бесплатно и без смс.