Cкачать бесплатно фильмы.
Поиск фильмов
Log Pass забыли?
  Бесплатные фильмы
Скачать Все наоборот - Deauxma (Analbang)
КатегорияМежрассовое / Зрелые / Анал / Груди
Похожие фильмы



Похожие онлайн фильмы
Постер фильма Все наоборот - Deauxma (Analbang)
Все наоборот - Deauxma (Analbang)

Обзор



Старая блядь, которую ебут три нигера, опровергает утверждение, что старость не радость


General
Complete name                            : C:UsersUserDownloadsDeauxma (Analbang).avi
Format                                   : AVI
Format/Info                              : Audio Video Interleave
File size                                : 448 MiB
Duration                                 : 42mn 54s
Overall bit rate                         : 1 459 Kbps
Writing application                      : MEncoder dev-CVS-051126-18:35-3.3
Writing library                          : MPlayer

Video
ID                                       : 0
Format                                   : MPEG-4 Visual
Format profile                           : Simple@L3
Format settings, BVOP                    : No
Format settings, QPel                    : No
Format settings, GMC                     : No warppoints
Format settings, Matrix                  : Default (H.263)
Codec ID                                 : XVID
Codec ID/Hint                            : XviD
Duration                                 : 42mn 54s
Bit rate                                 : 1 317 Kbps
Width                                    : 512 pixels
Height                                   : 384 pixels
Display aspect ratio                     : 4:3
Frame rate                               : 29.970 fps
Color space                              : YUV
Chroma subsampling                       : 4:2:0
Bit depth                                : 8 bits
Scan type                                : Progressive
Compression mode                         : Lossy
Bits/(Pixel*Frame)                       : 0.224
Stream size                              : 404 MiB (90%)
Writing library                          : XviD 1.1.0 RC (UTC 2005-11-22)

Audio
ID                                       : 1
Format                                   : MPEG Audio
Format version                           : Version 1
Format profile                           : Layer 3
Mode                                     : Joint stereo
Codec ID                                 : 55
Codec ID/Hint                            : MP3
Duration                                 : 42mn 54s
Bit rate mode                            : Constant
Bit rate                                 : 128 Kbps
Channel(s)                               : 2 channels
Sampling rate                            : 48.0 KHz
Compression mode                         : Lossy
Stream size                              : 39.3 MiB (9%)
Alignment                                : Aligned on interleaves
Interleave, duration                     : 24 ms (0.72 video frame)
Writing library                          : LAME3.97 (alpha)


http://i76.fastpic.ru/thumb/2015/1116/22/a904f1854336be3e9d147524b10d2122.jpeg http://i76.fastpic.ru/thumb/2015/1116/b6/8f9d78f7f02114a511637839a32813b6.jpeg http://i76.fastpic.ru/thumb/2015/1116/db/98cfce920cd325dbbe28cad3cc0931db.jpeg http://i76.fastpic.ru/thumb/2015/1116/7d/c67217b281da16fbec32a44106a0c77d.jpeg
Размер447.67 MB (469,412,166 байт)
Скачать Все наоборот - Deauxma (Analbang)

:: Отзывы



Отзывы отсутствуют.

 :: Отзывов нет
РЕГИСТРАЦИЯ.

Смотрите бесплатное порно или эротику

footerLeft
Информация для правообладателей На ёгли вы скачаете порно, бесплатные фильмы, а также новинки кино. Все это бесплатно и без смс.