Cкачать бесплатно фильмы.
Поиск фильмов
Log Pass забыли?
  Бесплатные фильмы
Скачать Второй дуплет известной анальщицы - Ryan Conner (Ryan Conner Dp d, World Famous Big Butt Pornstar Is Back!)
КатегорияОргия / Зрелые / Анал / Груди
Похожие фильмы



Похожие онлайн фильмы
Постер фильма Второй дуплет известной анальщицы - Ryan Conner (Ryan Conner Dp d, World Famous Big Butt Pornstar Is Back!)
Второй дуплет известной анальщицы - Ryan Conner  (Ryan Conner Dp d, World Famous Big Butt Pornstar Is Back!)

Обзор



Через двустволку знаменитая шлюха вернулась в порноиндустрию


General
Complete name                            : C:UsersUserDownloadsRyan Conner  (Ryan Conner Dp'd, World Famous Big Butt Pornstar Is Back!).mp4
Format                                   : MPEG-4
Format profile                           : Base Media
Codec ID                                 : isom
File size                                : 2.09 GiB
Duration                                 : 36mn 54s
Overall bit rate                         : 8 097 Kbps
Writing application                      : Lavf56.23.106

Video
ID                                       : 1
Format                                   : AVC
Format/Info                              : Advanced Video Codec
Format profile                           : High@L4.0
Format settings, CABAC                   : Yes
Format settings, ReFrames                : 4 frames
Codec ID                                 : avc1
Codec ID/Info                            : Advanced Video Coding
Duration                                 : 36mn 54s
Bit rate                                 : 8 000 Kbps
Width                                    : 1 920 pixels
Height                                   : 1 080 pixels
Display aspect ratio                     : 16:9
Frame rate mode                          : Constant
Frame rate                               : 29.970 fps
Color space                              : YUV
Chroma subsampling                       : 4:2:0
Bit depth                                : 8 bits
Scan type                                : Progressive
Bits/(Pixel*Frame)                       : 0.129
Stream size                              : 2.05 GiB (98%)
Writing library                          : x264 core 142
Encoding settings                        : cabac=1 / ref=3 / deblock=1:0:0 / analyse=0x3:0x113 / me=hex / subme=7 / psy=1 / psy_rd=1.00:0.00 / mixed_ref=1 / me_range=16 / chroma_me=1 / trellis=1 / 8x8dct=1 / cqm=0 / deadzone=21,11 / fast_pskip=1 / chroma_qp_offset=-2 / threads=12 / lookahead_threads=2 / sliced_threads=0 / nr=0 / decimate=1 / interlaced=0 / bluray_compat=0 / constrained_intra=0 / bframes=3 / b_pyramid=2 / b_adapt=1 / b_bias=0 / direct=1 / weightb=1 / open_gop=0 / weightp=2 / keyint=300 / keyint_min=29 / scenecut=40 / intra_refresh=0 / rc_lookahead=40 / rc=abr / mbtree=1 / bitrate=8000 / ratetol=1.0 / qcomp=0.60 / qpmin=10 / qpmax=51 / qpstep=4 / ip_ratio=1.40 / aq=1:1.00

Audio
ID                                       : 2
Format                                   : AAC
Format/Info                              : Advanced Audio Codec
Format profile                           : LC
Codec ID                                 : 40
Duration                                 : 36mn 54s
Duration_LastFrame                       : -3ms
Bit rate mode                            : Constant
Bit rate                                 : 128 Kbps
Channel(s)                               : 2 channels
Channel positions                        : Front: L R
Sampling rate                            : 48.0 KHz
Compression mode                         : Lossy
Stream size                              : 33.8 MiB (2%)


http://i76.fastpic.ru/big/2015/1118/ae/1d4e941a8ff5e25bab78d7bf4aca0aae.gif http://i76.fastpic.ru/big/2015/1118/60/a651bac347994586ea117d9573927760.gif http://i73.fastpic.ru/big/2015/1118/28/3643e9307f388847b6e62754d146b228.gif http://i75.fastpic.ru/big/2015/1118/28/81ce534f63ebbb9992094425a6ac5928.gif
http://i66.fastpic.ru/big/2015/1118/71/e8549fb9d1ec900e31107a8a635c9a71.gif http://i74.fastpic.ru/big/2015/1118/31/ccee7fd10f0f14cad146902b250faa31.gif


http://i65.fastpic.ru/big/2015/1118/29/688267f6a7337a8c66e3c69ad6bd8a29.jpg
Размер2.09 GB (2,241,186,742 байт)
Скачать Второй дуплет известной анальщицы - Ryan Conner (Ryan Conner Dp d, World Famous Big Butt Pornstar Is Back!)

:: ОТЗЫВЫ


button_offline Отзыв от milko24
avatar 235182

Особенно понравилось оформление гифками ;)

РЕГИСТРАЦИЯ.

Смотрите бесплатное порно или эротику

footerLeft
Информация для правообладателей На ёгли вы скачаете порно, бесплатные фильмы, а также новинки кино. Все это бесплатно и без смс.