Cкачать бесплатно фильмы.
Поиск фильмов
Log Pass забыли?
  Бесплатные фильмы
Скачать Высокая квалификация - Julia Ann (Gangbanged 4)
КатегорияОргия / Жёсткое / Зрелые / Анал / Груди
Похожие фильмы



Похожие онлайн фильмы
Постер фильма Высокая квалификация - Julia Ann (Gangbanged 4)
Высокая квалификация - Julia Ann (Gangbanged 4)

Обзор



Зреля проститутка, ветеран порно, перед уходом на пенсию решает узнать сколько хуев она сможет обработать за один раз.


General
Complete name                            : G:Julia Ann (Gangbanged 4).mp4
Format                                   : MPEG-4
Format profile                           : Base Media / Version 2
Codec ID                                 : mp42
File size                                : 2.32 GiB
Duration                                 : 2h 10mn
Overall bit rate mode                    : Variable
Overall bit rate                         : 2 548 Kbps
Encoded date                             : UTC 2014-01-08 04:44:20
Tagged date                              : UTC 2014-01-08 04:44:20
gsst                                     : 0
gstd                                     : 7836293
gssd                                     : B0AFCFE1B


Video
ID                                       : 1
Format                                   : AVC
Format/Info                              : Advanced Video Codec
Format profile                           : High@L3.1
Format settings, CABAC                   : Yes
Format settings, ReFrames                : 1 frame
Codec ID                                 : avc1
Codec ID/Info                            : Advanced Video Coding
Duration                                 : 2h 10mn
Bit rate                                 : 2 354 Kbps
Maximum bit rate                         : 6 903 Kbps
Width                                    : 1 280 pixels
Height                                   : 720 pixels
Display aspect ratio                     : 16:9
Frame rate mode                          : Constant
Frame rate                               : 29.970 fps
Color space                              : YUV
Chroma subsampling                       : 4:2:0
Bit depth                                : 8 bits
Scan type                                : Progressive
Bits/(Pixel*Frame)                       : 0.085
Stream size                              : 2.15 GiB (92%)
Tagged date                              : UTC 2014-01-08 04:52:26

Audio
ID                                       : 2
Format                                   : AAC
Format/Info                              : Advanced Audio Codec
Format profile                           : LC
Codec ID                                 : 40
Duration                                 : 2h 10mn
Bit rate mode                            : Variable
Bit rate                                 : 192 Kbps
Maximum bit rate                         : 202 Kbps
Channel(s)                               : 2 channels
Channel positions                        : Front: L R
Sampling rate                            : 44.1 KHz
Compression mode                         : Lossy
Stream size                              : 179 MiB (8%)
Title                                    : IsoMedia File Produced by Google, 5-11-2011
Encoded date                             : UTC 2014-01-08 04:49:26
Tagged date                              : UTC 2014-01-08 04:52:26


http://i73.fastpic.ru/big/2015/1120/ad/8d983cd83036b24f54fd168e26ec6aad.gif http://i73.fastpic.ru/big/2015/1120/7f/61c565fae42c95b8aedfb8f5457c577f.gif
http://i75.fastpic.ru/big/2015/1120/88/c5933946ac622313265ce7b41fb48188.gif http://i75.fastpic.ru/big/2015/1120/3e/6785cdaf280009b9ad1979ad223aba3e.gif
http://i74.fastpic.ru/big/2015/1120/2a/96f928f23c83f5ee5c936c8b285c772a.gif http://i65.fastpic.ru/big/2015/1120/eb/490cd8be29945efd57f3dda0d19592eb.gif
http://i74.fastpic.ru/big/2015/1120/fe/452d32aaa983a980490bde60e7ca37fe.gif http://i74.fastpic.ru/big/2015/1120/66/e5f5ad655e03b58f2e1b0c139736a466.gif


http://i73.fastpic.ru/big/2015/1120/60/b54182d4116dabffe6a7fa012ad65b60.jpg
Размер2.32 GB (2,495,963,209 байт)
Скачать Высокая квалификация - Julia Ann (Gangbanged 4)

:: ОТЗЫВЫ


button_offline Отзыв от PAGANINI
avatar 444434

:shit: :shit: :shit:   не то видео !!!!

button_offline Отзыв от trall12
avatar 712552

где видео??????????????

button_offline Отзыв от dargo14
avatar 318137

чо то не то с видео
:w00t: :w00t: :w00t: :w00t: :w00t:

button_offline Отзыв от nibber
avatar 616946

вместо порнушки, треллер игрушки, дракон какой то, короче лажа, не качать, в бан.....

button_offline Отзыв от Hl1kojla
avatar 722321

Да, на скинах видос Адский!!!)

РЕГИСТРАЦИЯ.

Смотрите бесплатное порно или эротику

footerLeft
Информация для правообладателей На ёгли вы скачаете порно, бесплатные фильмы, а также новинки кино. Все это бесплатно и без смс.