Cкачать бесплатно фильмы.
Поиск фильмов
Log Pass забыли?
  Бесплатные фильмы
Скачать Высоцкий. Спасибо, что живой [x264] [2011 | DVDRip]
КатегорияДрама
Похожие фильмы



Похожие онлайн фильмы
Постер фильма Высоцкий. Спасибо, что живой [x264] [2011 | DVDRip]
Высоцкий. Спасибо, что живой [x264] [2011 | DVDRip]

Обзор



Оригинальное название: Высоцкий. Спасибо, что живой
Год выхода: 2011
Cтрана: Россия
Режиссер: Петр Буслов
Cценарий: Никита Высоцкий
В ролях: Оксана Акиньшина, Сергей Безруков, Андрей Смоляков, Иван Ургант, Максим Леонидов, Андрей Панин, Владимир Ильин, Дмитрий Астрахан, Анна Ардова, Владимир Меньшов
Продолжительность: 02:06:47
Язык: Русский [лицензия]
Рип с лицензии: R5

О фильме:
«Два часа настоящей жизни»

Действие фильма разворачивается в 1979 году, когда на одном из концертов Высоцкому становится плохо с сердцем. Он переживает клиническую смерть.

http://zamolxismd.org/m/iceimg.com/i/5c/da/c10db41f2c.pnghttp://zamolxismd.org/m/iceimg.com/i/4a/5a/09306e1002.png
http://zamolxismd.org/m/iceimg.com/i/a8/18/2aa9d1bc79.pnghttp://zamolxismd.org/m/iceimg.com/i/d2/2d/7e2561aca9.png
http://zamolxismd.org/m/iceimg.com/i/86/f5/259e542975.pnghttp://zamolxismd.org/m/iceimg.com/i/e0/7f/66c35f3e96.png
http://zamolxismd.org/m/iceimg.com/i/18/1d/066e4a4f08.pnghttp://zamolxismd.org/m/iceimg.com/i/9d/2d/a8f0b44354.png

MediaInfo писал

Полное имя                      : D:VideoripXviD Relizx264Vysotskiy.2011.2100MB.DVDRip.x264.mkv
Формат                          : Matroska
Версия формата                  : Version 2
Размер файла                    : 2,05 Гбайт
Продолжительность                : 2 ч. 6 м.
Общий поток                      : 2312 Кбит/сек
Дата кодирования                : UTC 2012-01-07 13:37:28
Программа кодирования            : mkvmerge v4.9.1 ('Ich will') built on Jul 11 2011 23:53:15
Библиотека кодирования          : libebml v1.2.1 + libmatroska v1.1.1

Видео
Идентификатор                    : 1
Формат                          : AVC
Формат/Информация                : Advanced Video Codec
Профиль формата                  : High@L5.1
Параметр CABAC формата          : Да
Параметр ReFrames формата        : 12 кадров
Идентификатор кодека            : V_MPEG4/ISO/AVC
Продолжительность                : 2 ч. 6 м.
Битрейт                          : 1863 Кбит/сек
Ширина                          : 720 пикселей
Высота                          : 304 пикселя
Соотношение сторон              : 2,35:1
Частота кадров                  : 25,000 кадров/сек
Цветовое пространство            : YUV
Субдискретизация насыщенности    : 4:2:0
Битовая глубина                  : 8 бит
Тип развёртки                    : Прогрессивная
Бит/(Пиксели*Кадры)              : 0.340
Размер потока                    : 1,61 Гбайт (79%)
Библиотека кодирования          : x264 core 116 r2074 2641b9e
Настройки программы              : cabac=1 / ref=12 / deblock=1:-3:-3 / analyse=0x3:0x113 / me=hex / subme=7 / psy=1 / psy_rd=1.00:0.00 / mixed_ref=1 / me_range=16 / chroma_me=1 / trellis=1 / 8x8dct=1 / cqm=0 / deadzone=21,11 / fast_pskip=1 / chroma_qp_offset=-2 / threads=6 / sliced_threads=0 / nr=0 / decimate=1 / interlaced=0 / bluray_compat=0 / constrained_intra=0 / bframes=6 / b_pyramid=2 / b_adapt=1 / b_bias=0 / direct=1 / weightb=1 / open_gop=0 / weightp=2 / keyint=250 / keyint_min=25 / scenecut=40 / intra_refresh=0 / rc_lookahead=40 / rc=2pass / mbtree=1 / bitrate=1863 / ratetol=1.0 / qcomp=0.60 / qpmin=0 / qpmax=69 / qpstep=4 / cplxblur=20.0 / qblur=0.5 / ip_ratio=1.40 / aq=1:1.00
Default                          : Да
Forced                          : Нет

Аудио
Идентификатор                    : 2
Формат                          : AC-3
Формат/Информация                : Audio Coding 3
Расширение режима                : CM (complete main)
Идентификатор кодека            : A_AC3
Продолжительность                : 2 ч. 6 м.
Вид битрейта                    : Постоянный
Битрейт                          : 448 Кбит/сек
Каналы                          : 6 каналов
Расположение каналов            : Front: L C R, Side: L R, LFE
Частота                          : 48,0 КГц
Битовая глубина                  : 16 бит
Метод сжатия                    : С потерями
Размер потока                    : 406 Мбайт (19%)
Default                          : Да
Forced                          : Нет





ФАЙЛ
Качество: DVDRip
Видео: AVC, 720x304 (2.35:1), 25.000 fps, 1 863 Kbps (0.340 bit/pixel)
Звук: AC-3, 48.0 KHz, 6 ch, 448 Kbps, CBR


Пожалуйста не забывайте нажимать РЕСПЕКТ и СПАСИБО - автору приятно и полезно!
Размер2.05 GB (2,198,833,594 байт)
Скачать Высоцкий. Спасибо, что живой [x264] [2011 | DVDRip]

:: ОТЗЫВЫ


button_offline Отзыв от weker
avatar 699752

оооооооооо поглядим)))))

button_offline Отзыв от mirko
avatar 638569

Музикант - нульовий, актор, за словами фахіфців - посередній, наркоман і алкаш - ось все, чим відзначився. А - поет непоганий!

button_offline Отзыв от blackroses
avatar 300153

Вот твой билет, вот твой вагон.
Всё в лучшем виде — одному тебе дано
В цветном раю увидеть сон —
Трёхвековое непрерывное кино

          Всё позади — уже сняты
           Все отпечатки, контрабанды не берём;
           Как херувим, стерилен ты,
           А класс второй — не высший класс, зато с бельём.

                    Вот и сбывается всё, что пророчится,
                     Уходит поезд в небеса — счастливый путь!
                     Ах! Как нам хочется, как всем нам хочется
                     Не умереть, а именно уснуть.

Земной перрон! Не унывай!
И не кричи — для наших воплей он оглох.
Один из нас
                     уехал в рай,
Он встретит бога, если есть какой-то бог!

          Ты передай ему привет,
           А позабудешь — ничего, переживём:
           Осталось нам немного лет,
           Мы пошустрим и, как положено, умрём.

                    Вот и сбывается всё, что пророчится,
                     Уходит поезд в небеса — счастливый путь!
                     Ах! Как нам хочется, как всем нам хочется
                     Не умереть, а именно уснуть.

Не всем дано поспать в раю,
Но кое-что мы здесь успеем натворить:
Подраться, спеть, — вот я — пою,
Другие — любят, третьи — думают любить.

          Уйдут, как мы, в ничто без сна
           И сыновья, и внуки внуков в трёх веках...
           Не дай господь, чтобы война,
           А то мы правнуков оставим в дураках.

                    Вот и сбывается всё, что пророчится,
                     Уходит поезд в небеса — счастливый путь!
                     Ах! Как нам хочется, как всем нам хочется
                     Не умереть, а именно уснуть.

Тебе плевать и хоть бы хны:
Лежишь, миляга, принимаешь вечный кайф.
Что до меня — такой цены
Я б не дал, даже клад зарытый отыскав:

          Разбудит вас какой-то тип
           И впустит в мир, где в прошлом войны, вонь и рак,
           Где побеждён гонконгский грипп.
           На всём готовеньком ты счастлив ли, дурак?

                    Вот и сбывается всё, что пророчится,
                     Уходит поезд в небеса — счастливый путь!
                     Ах! Как нам хочется, как всем нам хочется
                     Не умереть, а именно уснуть.

Ну, а пока — звенит звонок.
Счастливый путь, храни тебя от всяких бед.
А если там приличный бог,
Ты всё же вспомни — передай ему привет!

button_offline Отзыв от blackroses
avatar 300153

mirko- хуепутало малолетнее, иди историю СССР  поучи.

button_offline Отзыв от blackroses
avatar 300153

kiram - ты пидар гнойный, жри  :shit: !!!

Последний раз редактировалось blackroses в 2012-02-27 20:43:28


button_offline Отзыв от kiram
avatar 504653

спасибки но высоцкий говно :shit: :shit: :shit: :shit: алкаш

button_offline Отзыв от zero2
avatar 729934

Отличный фильм, спасибо!!!

button_offline Отзыв от Gr_Fratello
avatar 445654

....его личная жизни меня не интересует....он гений...его творчество уникальна ! :-)

button_offline Отзыв от samsym
avatar 630532

БЫК ты kiram и сам ты  :shit: :shit: :shit: :shit:

button_offline Отзыв от Palaris
avatar 761588

интересно, по сколько лет тем, кто рисует  :shit:?
и с чем сравниваете Высоцкого? с берковой? ;)

Последний раз редактировалось Palaris в 2012-01-18 14:13:31


button_offline Отзыв от pla_gen
avatar 790241

Фильм стоящий! :w00t: :w00t: :w00t: :w00t: :w00t: :w00t: :w00t: :w00t:

РЕГИСТРАЦИЯ.

Смотрите бесплатное порно или эротику

footerLeft
Информация для правообладателей На ёгли вы скачаете порно, бесплатные фильмы, а также новинки кино. Все это бесплатно и без смс.