Cкачать бесплатно фильмы.
Поиск фильмов
Log Pass забыли?
  Бесплатные фильмы
Скачать Гопники обкончали шалаву - Emma Starr (Emma Starr Bei GGG)
КатегорияОргия / Зрелые / Орал / Груди
Похожие фильмы



Похожие онлайн фильмы
Постер фильма Гопники обкончали шалаву - Emma Starr (Emma Starr Bei GGG)
Гопники обкончали шалаву - Emma Starr (Emma Starr Bei GGG)

Обзор



Starr'ушку отъебала и залила спермой толпа фрицев

http://thumbnails116.imagebam.com/50591/babdb9505909443.jpg http://thumbnails115.imagebam.com/50591/d82a51505909445.jpg http://thumbnails116.imagebam.com/50591/c67b68505909447.jpg http://thumbnails115.imagebam.com/50591/feda4f505909448.jpg http://thumbnails115.imagebam.com/50591/a6dac0505909450.jpg http://thumbnails115.imagebam.com/50591/3ce4ea505909451.jpg http://thumbnails115.imagebam.com/50591/34bb19505909453.jpg http://thumbnails116.imagebam.com/50591/782ea3505909454.jpg

General
Complete name                  : C:UsersUserDownloadsAvsPhelpEmma Starr (Emma Starr Bei GGG).mp4
Format                         : MPEG-4
Format profile                 : Base Media
Codec ID                       : isom
File size                      : 599 MiB
Duration                       : 30mn 58s
Overall bit rate mode          : Variable
Overall bit rate               : 2 705 Kbps
Encoded date                   : UTC 2016-09-02 00:37:25
Tagged date                    : UTC 2016-09-02 00:37:25

Video
ID                             : 1
Format                         : AVC
Format/Info                    : Advanced Video Codec
Format profile                 : High@L3.1
Format settings, CABAC         : Yes
Format settings, ReFrames      : 4 frames
Codec ID                       : avc1
Codec ID/Info                  : Advanced Video Coding
Duration                       : 30mn 58s
Bit rate                       : 2 589 Kbps
Width                          : 1 280 pixels
Height                         : 720 pixels
Display aspect ratio           : 16:9
Frame rate mode                : Constant
Frame rate                     : 29.970 fps
Color space                    : YUV
Chroma subsampling             : 4:2:0
Bit depth                      : 8 bits
Scan type                      : Progressive
Bits/(Pixel*Frame)             : 0.094
Stream size                    : 574 MiB (96%)
Tagged date                    : UTC 2016-09-02 00:37:44

Audio
ID                             : 2
Format                         : AAC
Format/Info                    : Advanced Audio Codec
Format profile                 : LC
Codec ID                       : 40
Duration                       : 30mn 58s
Bit rate mode                  : Variable
Bit rate                       : 111 Kbps
Maximum bit rate               : 128 Kbps
Channel(s)                     : 2 channels
Channel positions              : Front: L R
Sampling rate                  : 48.0 KHz
Compression mode               : Lossy
Stream size                    : 24.8 MiB (4%)
Tagged date                    : UTC 2016-09-02 00:37:44

Размер599.33 MB (628,443,166 байт)
Скачать Гопники обкончали шалаву - Emma Starr (Emma Starr Bei GGG)

:: Отзывы



Отзывы отсутствуют.

 :: Отзывов нет
РЕГИСТРАЦИЯ.

Смотрите бесплатное порно или эротику

footerLeft
Информация для правообладателей На ёгли вы скачаете порно, бесплатные фильмы, а также новинки кино. Все это бесплатно и без смс.