Cкачать бесплатно фильмы.
Поиск фильмов
Log Pass забыли?
  Бесплатные фильмы
Скачать Готова дать любому - Holly Halston
КатегорияЗрелые / Груди
Похожие фильмы



Похожие онлайн фильмы
Постер фильма Готова дать любому - Holly Halston
Готова дать любому - Holly Halston

Обзор



Сисястая проститутка за неимением альтернативы дает себя отъебать какому-то беженцу


General
Complete name                            : C:UsersUserDownloadsHolly Halston.mp4
Format                                   : MPEG-4
Format profile                           : Base Media
Codec ID                                 : isom
File size                                : 541 MiB
Duration                                 : 37mn 42s
Overall bit rate mode                    : Variable
Overall bit rate                         : 2 004 Kbps
Encoded date                             : UTC 2013-08-28 10:19:01
Tagged date                              : UTC 2013-08-28 10:19:01

Video
ID                                       : 1
Format                                   : AVC
Format/Info                              : Advanced Video Codec
Format profile                           : High@L4.1
Format settings, CABAC                   : Yes
Format settings, ReFrames                : 8 frames
Format settings, GOP                     : M=1, N=25
Codec ID                                 : avc1
Codec ID/Info                            : Advanced Video Coding
Duration                                 : 37mn 42s
Bit rate                                 : 1 938 Kbps
Maximum bit rate                         : 4 463 Kbps
Width                                    : 1 280 pixels
Height                                   : 720 pixels
Display aspect ratio                     : 16:9
Frame rate mode                          : Constant
Frame rate                               : 25.000 fps
Color space                              : YUV
Chroma subsampling                       : 4:2:0
Bit depth                                : 8 bits
Scan type                                : Progressive
Bits/(Pixel*Frame)                       : 0.084
Stream size                              : 523 MiB (97%)
Writing library                          : Zencoder Video Encoding System
Encoded date                             : UTC 2013-08-28 10:01:39
Tagged date                              : UTC 2013-08-28 10:19:04

Audio
ID                                       : 2
Format                                   : AAC
Format/Info                              : Advanced Audio Codec
Format profile                           : LC
Codec ID                                 : 40
Duration                                 : 37mn 42s
Bit rate mode                            : Variable
Bit rate                                 : 64.0 Kbps
Maximum bit rate                         : 70.3 Kbps
Channel(s)                               : 2 channels
Channel positions                        : Front: L R
Sampling rate                            : 44.1 KHz
Compression mode                         : Lossy
Stream size                              : 17.3 MiB (3%)
Encoded date                             : UTC 2013-08-28 10:19:04
Tagged date                              : UTC 2013-08-28 10:19:04


http://i75.fastpic.ru/big/2015/1118/46/583f8e0c6532567082a99597c3211c46.gif http://i75.fastpic.ru/big/2015/1118/34/e810cff932c45354ee5f756e81332134.gif
http://i74.fastpic.ru/big/2015/1118/6c/7b4b6eca7e5087bc4c2b3171b973d96c.gif http://i66.fastpic.ru/big/2015/1118/a6/abd6b8cd072a56063e53dbda73af69a6.gif


http://i73.fastpic.ru/big/2015/1118/6c/f7929cce67b365839eb315f65f63626c.jpg
Размер540.51 MB (566,762,926 байт)
Скачать Готова дать любому - Holly Halston

:: ОТЗЫВЫ


button_offline Отзыв от Sergoganet
avatar 456681

:-) :-) :-) :-) :-) :-) :-) :-) :-)

РЕГИСТРАЦИЯ.

Смотрите бесплатное порно или эротику

footerLeft
Информация для правообладателей На ёгли вы скачаете порно, бесплатные фильмы, а также новинки кино. Все это бесплатно и без смс.