Cкачать бесплатно фильмы.
Поиск фильмов
Log Pass забыли?
  Бесплатные фильмы
Скачать Две американские девахи решили поиметь мужика, но вышло все наоборот ))) - Two girls and one men USA 2009
КатегорияАнал / Жёсткое / Оргия
Похожие фильмы



Похожие онлайн фильмы
Постер фильма Две американские девахи решили поиметь мужика, но вышло все наоборот ))) - Two girls and one men USA 2009
Две американские девахи решили поиметь мужика, но вышло все наоборот ))) - Two girls and one men USA 2009
Фото фильма Две американские девахи решили поиметь мужика, но вышло все наоборот ))) - Two girls and one men USA 2009
Две американские девахи решили поиметь мужика, но вышло все наоборот ))) - Two girls and one men USA 2009

Обзор



Two girls and one men (USA 2009) /
Две американские девахи решили поиметь мужика, но вышло все наоборот)))


Буду очень признателен если наpовете имена этих красоток (в комментариях к торренту) ну или из какого фильма эта сцена)))

Video
Format                                   : MPEG-4 Visual
Duration                                 : 27mn 49s
Bit rate                                 : 1 500 Kbps
Width                                    : 640 pixels
Height                                   : 480 pixels
Display aspect ratio                     : 4:3
Frame rate                               : 29.970 fps
Stream size                              : 299 MiB (92%)
Writing library                          : DigiArty AV Encoder Core

Audio
Format                                   : AAC
Codec ID                                 : 40
Duration                                 : 27mn 49s
Bit rate                                 : 128 Kbps
Channel(s)                               : 2 channels
Sampling rate                            : 48.0 KHz
Stream size                              : 25.5 MiB (8%)
Размер325.00 MB (340,791,815 байт)
Скачать Две американские девахи решили поиметь мужика, но вышло все наоборот ))) - Two girls and one men USA 2009

:: ОТЗЫВЫ


button_offline Отзыв от BUDDIST
avatar 758379

[baronishe] ага, значит хороший торрент :-P :-P :-P

button_offline Отзыв от baronishe
avatar 10093

Хехе, мой торрент побил рекорды по скачиваниям :-D

button_offline Отзыв от Jordan23__45
avatar 725128

соблазнительние девочки :-D :-D :-D

button_offline Отзыв от Mrlev2010
avatar 787837

какая красотка с ангельским лицом.

button_offline Отзыв от baronishe
avatar 10093

Если вы мне скажете их имена, я вообще рад буду :-D

РЕГИСТРАЦИЯ.

Смотрите бесплатное порно или эротику

footerLeft
Информация для правообладателей На ёгли вы скачаете порно, бесплатные фильмы, а также новинки кино. Все это бесплатно и без смс.