Cкачать бесплатно фильмы.
Поиск фильмов
Log Pass забыли?
  Бесплатные фильмы
Скачать Девочки хотят веселья - Girls Just Want To Have Fun - Scene 4 - Bellissima And Jennifer Max And Ellen And Stacy Silver Tube
КатегорияЛесбо / Груди
Похожие фильмы



Похожие онлайн фильмы
Постер фильма Девочки хотят веселья - Girls Just Want To Have Fun - Scene 4 - Bellissima And Jennifer Max And Ellen And Stacy Silver Tube
Девочки хотят веселья - Girls Just Want To Have Fun - Scene 4 - Bellissima And Jennifer Max And Ellen And Stacy Silver Tube
Фото фильма Девочки хотят веселья - Girls Just Want To Have Fun - Scene 4 - Bellissima And Jennifer Max And Ellen And Stacy Silver Tube
Девочки хотят веселья - Girls Just Want To Have Fun - Scene 4 - Bellissima And Jennifer Max And Ellen And Stacy Silver Tube

Обзор



Format                           : MPEG-4
Format profile                   : Base Media
Codec ID                         : isom
File size                        : 240 MiB
Duration                         : 28mn 59s
Overall bit rate                 : 1 159 Kbps
Writing application              : Lavf52.84.0

Video
ID                               : 1
Format                           : AVC
Format/Info                      : Advanced Video Codec
Format profile                   : Main@L3.0
Format settings, CABAC           : Yes
Format settings, ReFrames        : 3 frames
Codec ID                         : avc1
Codec ID/Info                    : Advanced Video Coding
Duration                         : 28mn 59s
Bit rate mode                    : Variable
Bit rate                         : 1 024 Kbps
Width                            : 720 pixels
Height                           : 480 pixels
Display aspect ratio             : 4:3
Frame rate mode                  : Variable
Frame rate                       : 29.970 fps
Minimum frame rate               : 9.990 fps
Maximum frame rate               : 29.970 fps
Standard                         : NTSC
Color space                      : YUV
Chroma subsampling               : 4:2:0
Bit depth                        : 8 bits
Scan type                        : Progressive
Bits/(Pixel*Frame)               : 0.099
Stream size                      : 212 MiB (88%)
Writing library                  : x264 core 105 r1724 b02df7b
Encoding settings                : cabac=1 / ref=3 / deblock=1:0:0 / analyse=0x1:0x111 / me=dia / subme=5 / psy=1 / psy_rd=0.00:0.00 / mixed_ref=1 / me_range=16 / chroma_me=1 / trellis=1 / 8x8dct=0 / cqm=0 / deadzone=21,11 / fast_pskip=1 / chroma_qp_offset=0 / threads=16 / sliced_threads=0 / nr=0 / decimate=1 / interlaced=0 / constrained_intra=0 / bframes=3 / b_pyramid=0 / b_adapt=1 / b_bias=0 / direct=2 / weightb=0 / open_gop=0 / weightp=0 / keyint=250 / keyint_min=25 / scenecut=40 / intra_refresh=0 / rc_lookahead=40 / rc=2pass / mbtree=1 / bitrate=1024 / ratetol=1.0 / qcomp=0.80 / qpmin=10 / qpmax=51 / qpstep=4 / cplxblur=20.0 / qblur=0.5 / ip_ratio=1.41 / aq=1:1.00

Audio
ID                               : 2
Format                           : AAC
Format/Info                      : Advanced Audio Codec
Format profile                   : LC
Codec ID                         : 40
Duration                         : 28mn 59s
Bit rate mode                    : Variable
Bit rate                         : 128 Kbps
Channel(s)                       : 2 channels
Channel positions                : Front: L R
Sampling rate                    : 48.0 KHz
Compression mode                 : Lossy
Stream size                      : 26.5 MiB (11%)
Размер240.23 MB (251,897,153 байт)
Скачать Девочки хотят веселья - Girls Just Want To Have Fun - Scene 4 - Bellissima And Jennifer Max And Ellen And Stacy Silver Tube

:: Отзывы



Отзывы отсутствуют.

 :: Отзывов нет
РЕГИСТРАЦИЯ.

Смотрите бесплатное порно или эротику

footerLeft
Информация для правообладателей На ёгли вы скачаете порно, бесплатные фильмы, а также новинки кино. Все это бесплатно и без смс.