Cкачать бесплатно фильмы.
Поиск фильмов
Log Pass забыли?
  Бесплатные фильмы
Скачать Дженнифер Макс дерут два ствола - Jennifer Max Threesome
КатегорияГруди / Анал
Похожие фильмы



Похожие онлайн фильмы
Постер фильма Дженнифер Макс дерут два ствола - Jennifer Max Threesome
Дженнифер Макс дерут два ствола - Jennifer Max Threesome
Фото фильма Дженнифер Макс дерут два ствола - Jennifer Max Threesome
Дженнифер Макс дерут два ствола - Jennifer Max Threesome

Обзор



Format                           : AVI
Format/Info                      : Audio Video Interleave
File size                        : 77.3 MiB
Duration                         : 21mn 14s
Overall bit rate                 : 509 Kbps
Writing application              : Lavf50.3.0

Video
ID                               : 0
Format                           : MPEG-4 Visual
Codec ID                         : MP43
Codec ID/Info                    : Microsoft MPEG-4 v3 (pre-standard)
Codec ID/Hint                    : Microsoft
Duration                         : 21mn 14s
Bit rate                         : 400 Kbps
Width                            : 384 pixels
Height                           : 288 pixels
Display aspect ratio             : 4:3
Frame rate                       : 25.000 fps
Compression mode                 : Lossy
Bits/(Pixel*Frame)               : 0.145
Stream size                      : 60.8 MiB (79%)

Audio
ID                               : 1
Format                           : MPEG Audio
Format version                   : Version 1
Format profile                   : Layer 3
Mode                             : Joint stereo
Mode extension                   : MS Stereo
Codec ID                         : 55
Codec ID/Hint                    : MP3
Duration                         : 21mn 13s
Bit rate mode                    : Constant
Bit rate                         : 96.0 Kbps
Channel(s)                       : 2 channels
Sampling rate                    : 44.1 KHz
Compression mode                 : Lossy
Stream size                      : 14.6 MiB (19%)
Alignment                        : Aligned on interleaves
Interleave, duration             : 26 ms (0.65 video frame)
Interleave, preload duration     : 26 ms
Writing library                  : LAME3.96.1
Размер77.27 MB (81,019,382 байт)
Скачать Дженнифер Макс дерут два ствола - Jennifer Max Threesome

:: ОТЗЫВЫ


button_offline Отзыв от огромный
avatar 799913

раздающий - :weirdo: :weirdo: :sneaky: :sneaky: :sly: :sly: :-/ :-/ :shit: :shit: :?: :?: :?: :?: :!: :!: :!:

button_offline Отзыв от огромный
avatar 799913

раздающий - :weirdo: :weirdo: :sneaky: :sneaky: :sly: :sly: :-/ :-/ :shit: :shit: :?: :?: :?: :?: :!: :!: :!:

button_offline Отзыв от огромный
avatar 799913

раздающий - :weirdo: :weirdo: :sneaky: :sneaky: :sly: :sly: :-/ :-/ :shit: :shit: :?: :?: :?: :?: :!: :!: :!:

button_offline Отзыв от огромный
avatar 799913

раздающий - :weirdo: :weirdo: :sneaky: :sneaky: :sly: :sly: :-/ :-/ :shit: :shit: :?: :?: :?: :?: :!: :!: :!:

РЕГИСТРАЦИЯ.

Смотрите бесплатное порно или эротику

footerLeft
Информация для правообладателей На ёгли вы скачаете порно, бесплатные фильмы, а также новинки кино. Все это бесплатно и без смс.