Cкачать бесплатно фильмы.
Поиск фильмов
Log Pass забыли?
  Бесплатные фильмы
Скачать Дженнифер Макс и Ленка - jennifer max and lenka
КатегорияЛесбо / Груди
Похожие фильмы



Похожие онлайн фильмы
Постер фильма Дженнифер Макс и Ленка - jennifer max and lenka
Дженнифер Макс и Ленка - jennifer max and lenka
Фото фильма Дженнифер Макс и Ленка - jennifer max and lenka
Дженнифер Макс и Ленка - jennifer max and lenka

Обзор



File size                        : 471 MiB
Duration                         : 30mn 15s
Overall bit rate                 : 2 177 Kbps
Maximum Overall bit rate         : 2 140 Kbps
Encoded date                     : UTC 2010-01-11 14:10:59.000

Video
ID                               : 1
Format                           : VC-1
Format profile                   : SP
Codec ID                         : WMV3
Codec ID/Info                    : Windows Media Video 9
Codec ID/Hint                    : WMV3
Description of the codec         : Windows Media Video 9 - 2-pass VBR
Duration                         : 30mn 15s
Bit rate                         : 2 000 Kbps
Width                            : 640 pixels
Height                           : 480 pixels
Display aspect ratio             : 4:3
Frame rate                       : 25.000 fps
Bit depth                        : 8 bits
Scan type                        : Progressive
Compression mode                 : Lossy
Bits/(Pixel*Frame)               : 0.260
Stream size                      : 433 MiB (92%)

Audio
ID                               : 2
Format                           : WMA
Format version                   : Version 2
Codec ID                         : 161
Codec ID/Info                    : Windows Media Audio
Description of the codec         : Windows Media Audio 9 - 128 kbps, 44 kHz, stereo CBR
Duration                         : 30mn 15s
Bit rate                         : 128 Kbps
Channel(s)                       : 2 channels
Sampling rate                    : 44.1 KHz
Bit depth                        : 16 bits
Stream size                      : 27.7 MiB (6%)
Размер471.12 MB (494,000,148 байт)
Скачать Дженнифер Макс и Ленка - jennifer max and lenka

:: Отзывы



Отзывы отсутствуют.

 :: Отзывов нет
РЕГИСТРАЦИЯ.

Смотрите бесплатное порно или эротику

footerLeft
Информация для правообладателей На ёгли вы скачаете порно, бесплатные фильмы, а также новинки кино. Все это бесплатно и без смс.