Cкачать бесплатно фильмы.
Поиск фильмов
Log Pass забыли?
  Бесплатные фильмы
Скачать Дженнифер Макс с парнем - HighDefMoms - Jennifer Max
КатегорияГруди
Похожие фильмы



Похожие онлайн фильмы
Постер фильма Дженнифер Макс с парнем - HighDefMoms - Jennifer Max
Дженнифер Макс с парнем - HighDefMoms - Jennifer Max
Фото фильма Дженнифер Макс с парнем - HighDefMoms - Jennifer Max
Дженнифер Макс с парнем - HighDefMoms - Jennifer Max

Обзор



Format                           : Windows Media
File size                        : 858 MiB
Duration                         : 27mn 20s
Overall bit rate                 : 4 384 Kbps
Maximum Overall bit rate         : 4 294 Mbps
Encoded date                     : UTC 2007-07-21 04:56:23.000
Writing application              : Flip4Mac WMV Export Component for QuickTime (Mac) 2127

Video
ID                               : 2
Format                           : VC-1
Format profile                   : MP
Codec ID                         : WMV3
Codec ID/Info                    : Windows Media Video 9
Codec ID/Hint                    : WMV3
Description of the codec         : Windows Media Video V9 - 1280 x 720, 25.00 fps, 4000 kbps (CBR)
Duration                         : 27mn 20s
Bit rate                         : 4 294 Mbps
Width                            : 1 280 pixels
Height                           : 720 pixels
Display aspect ratio             : 16:9
Frame rate                       : 25.000 fps
Bit depth                        : 8 bits
Scan type                        : Progressive
Compression mode                 : Lossy
Bits/(Pixel*Frame)               : 186.357
Stream size                      : 820 GiB
Language                         : English (US)

Audio
ID                               : 1
Format                           : WMA
Format version                   : Version 2
Codec ID                         : 161
Codec ID/Info                    : Windows Media Audio
Description of the codec         : Windows Media Audio V9 Standard - 192 kbps, 44 kHz, 16 bit, Stereo (CBR)
Duration                         : 27mn 20s
Bit rate mode                    : Constant
Bit rate                         : 192 Kbps
Channel(s)                       : 2 channels
Sampling rate                    : 44.1 KHz
Bit depth                        : 16 bits
Stream size                      : 37.6 MiB (4%)
Language                         : English (US)
Размер857.52 MB (899,170,530 байт)
Скачать Дженнифер Макс с парнем - HighDefMoms - Jennifer Max

:: Отзывы



Отзывы отсутствуют.

 :: Отзывов нет
РЕГИСТРАЦИЯ.

Смотрите бесплатное порно или эротику

footerLeft
Информация для правообладателей На ёгли вы скачаете порно, бесплатные фильмы, а также новинки кино. Все это бесплатно и без смс.