Cкачать бесплатно фильмы.
Поиск фильмов
Log Pass забыли?
  Бесплатные фильмы
Скачать Дженнифер и ее маленькие друзья - hornyJennifer
КатегорияГруди / Рукоделие
Похожие фильмы



Похожие онлайн фильмы
Постер фильма Дженнифер и ее маленькие друзья - hornyJennifer
Дженнифер и ее маленькие друзья - hornyJennifer
Фото фильма Дженнифер и ее маленькие друзья - hornyJennifer
Дженнифер и ее маленькие друзья - hornyJennifer

Обзор



ormat                           : Windows Media
File size                        : 135 MiB
Duration                         : 26mn 41s
Overall bit rate mode            : Constant
Overall bit rate                 : 705 Kbps
Maximum Overall bit rate         : 709 Kbps
Encoded date                     : UTC 2006-09-13 12:14:46.688

Video
ID                               : 2
Format                           : WMV2
Codec ID                         : WMV2
Codec ID/Info                    : Windows Media Video 8
Description of the codec         : Windows Media Video V8
Duration                         : 26mn 41s
Bit rate mode                    : Constant
Bit rate                         : 636 Kbps
Width                            : 448 pixels
Height                           : 352 pixels
Display aspect ratio             : 1.273
Frame rate                       : 25.000 fps
Bit depth                        : 8 bits
Bits/(Pixel*Frame)               : 0.161
Stream size                      : 121 MiB (90%)
Language                         : English
NumberOfFrames                   : 40019

Audio
ID                               : 1
Format                           : WMA
Format version                   : Version 2
Codec ID                         : 161
Codec ID/Info                    : Windows Media Audio
Description of the codec         : Windows Media Audio 9.1 -  64 kbps, 44 kHz, stereo (A/V) 1-pass CBR
Duration                         : 26mn 41s
Bit rate mode                    : Constant
Bit rate                         : 64.0 Kbps
Channel(s)                       : 2 channels
Sampling rate                    : 44.1 KHz
Bit depth                        : 16 bits
Stream size                      : 12.2 MiB (9%)
Language                         : English
NumberOfFrames                   : 8623
Размер134.64 MB (141,180,163 байт)
Скачать Дженнифер и ее маленькие друзья - hornyJennifer

:: Отзывы



Отзывы отсутствуют.

 :: Отзывов нет
РЕГИСТРАЦИЯ.

Смотрите бесплатное порно или эротику

footerLeft
Информация для правообладателей На ёгли вы скачаете порно, бесплатные фильмы, а также новинки кино. Все это бесплатно и без смс.