Cкачать бесплатно фильмы.
Поиск фильмов
Log Pass забыли?
  Бесплатные фильмы
Скачать Директор насилует непослушную грудастую школьницу - btas Kagney Linn Karter|brazzers|
КатегорияСюжетное
Похожие фильмы



Похожие онлайн фильмы
Постер фильма Директор насилует непослушную грудастую школьницу - btas Kagney Linn Karter|brazzers|
Директор насилует непослушную грудастую школьницу - btas Kagney Linn Karter|brazzers|

Обзор



Название: Директор насилует непослушную грудастую школьницу (SiteRip)
Год выхода: 2009
Жанр: Молоденькие, Жесткий секс, Трах сисек, Блондинки, Большой член, Фетиш, Большие сиськи, Студентки
Студия:  Brazzers
В ролях: Kagney Linn Karter
Продолжительность: 37 мин

Описание: Блондинка Кегни Линн - плохая непослушная школьница и в школе делает всё, что захочет. В этот раз учительница увидела, как она списывала на экзамене и поэтому отправила ее в кабинет директора. В кабинете директора она жует жвачку и говорит ему много гадостей. Тогда он просто ставит ее раком и начинает жестко трахать сзади, пока она не начинает кричать. Но он продолжил воспитательный процесс и осуществил наказание до полного извержения своего конца!



Качество: SiteRip
Размер: 307 Mb
Формат: MP4
Видео: 768x432 29.97fps 1100kbps
Аудио: 48000Hz stereo 128Kbps


Инфа о файле:

      Format : MPEG-4
      Format profile : Base Media
      Codec ID : isom
      File size : 307 MiB
      Duration : 36mn 32s
      Overall bit rate : 1 174 Kbps
      Encoded date : UTC 2009-09-03 00:00:03
      Tagged date : UTC 2009-09-03 00:00:03
   Video #1
      ID : 1
      Format : AVC
      Format/Info : Advanced Video Codec
      Format profile : Baseline@L1.3
      Format settings, CABAC : No
      Format settings, ReFrames : 1 frame
      Codec ID : avc1
      Codec ID/Info : Advanced Video Coding
      Duration : 36mn 31s
      Bit rate mode : Variable
      Bit rate : 1 100 Kbps
      Maximum bit rate : 2 030 Kbps
      Width : 768 pixels
      Height : 432 pixels
      Display aspect ratio : 16:9
      Frame rate mode : Variable
      Frame rate : 29.970 fps
      Minimum frame rate : 14.985 fps
      Maximum frame rate : 29.970 fps
      Resolution : 24 bits
      Colorimetry : 4:2:0
      Scan type : Progressive
      Bits/(Pixel*Frame) : 0.111
      Stream size : 287 MiB (94%)
      Encoded date : UTC 1970-01-01 00:00:00
      Tagged date : UTC 2009-09-03 00:00:24
   Audio #2
      ID : 2
      Format : AAC
      Format/Info : Advanced Audio Codec
      Format version : Version 4
      Format profile : LC
      Format settings, SBR : Yes
      Format settings, PS : No
      Codec ID : 40
      Duration : 36mn 32s
      Bit rate mode : Variable
      Bit rate : 72.0 Kbps
      Maximum bit rate : 143 Kbps
      Channel(s) : 2 channels
      Channel positions : L R

      Sampling rate : 44.1 KHz
      Resolution : 16 bits
      Stream size : 19.0 MiB (6%)
      Encoded date : UTC 2009-09-03 00:00:23
      Tagged date : UTC 2009-09-03 00:00:24


Скрин на pic4you:
http://pic4you.ru/allimage/y2011/05-12/7830/897504-thumb.jpg

Скрин на fastpic:
http://i11.fastpic.ru/thumb/2011/0512/fb/221b1f7d66426b0a021d3495617d37fb.jpeg
Размер307.24 MB (322,165,312 байт)
Скачать Директор насилует непослушную грудастую школьницу - btas Kagney Linn Karter|brazzers|
Файлы
[Посмотреть список]
4 файлы

:: ОТЗЫВЫ


button_offline Отзыв от Server87
avatar 692409

Спасибо!!!! 8-) 8-) 8-)

button_offline Отзыв от viking33
avatar 761608

если она школьница - то я билли гейтс :-D :-D :-D :-D :-D

button_offline Отзыв от Cocaine
avatar 674846

Vitoldi год напиши 2009

button_offline Отзыв от Vitoldi
avatar 763232

[Cocaine] Ты боришься за правильность?Так вот знай -когда борятся за правильность - то не выбирают методы унижения других людей...

button_offline Отзыв от Cocaine
avatar 674846

Vitoldi иди соси хуй, научись писать верную инфу долбаёб ,и ненадо наёбывать народ,всем похуй када ты этот рол зарелизер,а вот с годом выхода ненадо наёбывать это 2009 год

button_offline Отзыв от Vitoldi
avatar 763232

ещё и дальше наезжать хватает наглости....

button_offline Отзыв от Vitoldi
avatar 763232

[Cocaine] Ослина тупая,неблагодарная,ты ошиблась на тему выхода даты,это была не дата выхода а дата моего релиза,быстро извинилась и заткнулась пля....

button_offline Отзыв от Cocaine
avatar 674846

Vitoldi хорош тупить дата твоего рилиза пишеться автоматом на этой странице где написано Добавлено глаза разуй,а ролик этот 2009 года, в название непишеться торена непишеться что ты написал,всем похуй на твою дату твоего релиза туебень,в название пишеться год выхода ролика а он 2009 года,на офф сайт сходи и почитай.


и тут написал 2011

Название: Директор насилует непослушную грудастую школьницу (SiteRip)
Год выхода: 2011
Жанр: Молоденькие, Жесткий секс, Трах сисек, Блондинки, Большой член, Фетиш, Большие сиськи, Студентки
Студия:  Brazzers
В ролях: Kagney Linn Karter
Продолжительность: 37 мин

button_offline Отзыв от alexfantic
avatar 809557

гарна курва :-) :-) :-) :-) :-) :-) :-)

button_offline Отзыв от arhangelsex
avatar 286927

Большое спасибо!  :-) :-P :w00t:

button_offline Отзыв от Vitoldi
avatar 763232

[Cocaine] Это дата моего релиза вообще-то.Узнай сначала,прежде чем наезжать :)

button_offline Отзыв от Cocaine
avatar 674846

КАКОЙ НАХ  12.05.11,ХОРОШ НАРОД В НЕПОНЯТКУ ВВОДИТЬ ЭТО РОЛ 2009 ГОДА

РЕГИСТРАЦИЯ.

Смотрите бесплатное порно или эротику

footerLeft
Информация для правообладателей На ёгли вы скачаете порно, бесплатные фильмы, а также новинки кино. Все это бесплатно и без смс.