Cкачать бесплатно фильмы.
Поиск фильмов
Log Pass забыли?
  Бесплатные фильмы
Скачать Дуплет для потаскухи - Holly Heart (Dirty Rotten Mother Fuckers 9)
КатегорияОргия / Зрелые / Анал / Груди
Похожие фильмы



Похожие онлайн фильмы
Постер фильма Дуплет для потаскухи - Holly Heart (Dirty Rotten Mother Fuckers 9)
Дуплет для потаскухи - Holly Heart (Dirty Rotten Mother Fuckers 9)

Обзор



Шлюху насадили сразу на два хуя


General
Complete name                            : C:UsersUserDownloadsHolly Heart (Dirty Rotten Mother Fuckers 9).mp4
Format                                   : MPEG-4
Format profile                           : Base Media
Codec ID                                 : isom
File size                                : 348 MiB
Duration                                 : 32mn 41s
Overall bit rate                         : 1 488 Kbps
Encoded date                             : UTC 2015-06-22 17:59:07
Tagged date                              : UTC 2015-06-22 17:59:07

Video
ID                                       : 1
Format                                   : AVC
Format/Info                              : Advanced Video Codec
Format profile                           : Main@L3.0
Format settings, CABAC                   : Yes
Format settings, ReFrames                : 4 frames
Codec ID                                 : avc1
Codec ID/Info                            : Advanced Video Coding
Duration                                 : 32mn 41s
Bit rate                                 : 1 387 Kbps
Width                                    : 852 pixels
Height                                   : 480 pixels
Display aspect ratio                     : 16:9
Frame rate mode                          : Constant
Frame rate                               : 29.970 fps
Color space                              : YUV
Chroma subsampling                       : 4:2:0
Bit depth                                : 8 bits
Scan type                                : Progressive
Bits/(Pixel*Frame)                       : 0.113
Stream size                              : 324 MiB (93%)
Language                                 : English
Tagged date                              : UTC 2015-06-22 17:59:34

Audio
ID                                       : 2
Format                                   : AAC
Format/Info                              : Advanced Audio Codec
Format profile                           : LC
Codec ID                                 : 40
Duration                                 : 32mn 41s
Bit rate mode                            : Constant
Bit rate                                 : 96.0 Kbps
Channel(s)                               : 2 channels
Channel positions                        : Front: L R
Sampling rate                            : 44.1 KHz
Compression mode                         : Lossy
Stream size                              : 22.4 MiB (6%)
Language                                 : English
Tagged date                              : UTC 2015-06-22 17:59:34


http://i67.fastpic.ru/big/2015/1125/b5/7723c9c5a1cda1c8e7f418cb019c97b5.gif http://i76.fastpic.ru/big/2015/1125/8f/df2269228ea2dd1d0cb5f96f2a98718f.gif
http://i75.fastpic.ru/big/2015/1125/4e/8c7779e23214e56ff244ea3e6b36a44e.gif http://i76.fastpic.ru/big/2015/1125/b1/092de26271492e907c5b069807cf1cb1.gif
http://i66.fastpic.ru/big/2015/1125/9e/9f356a7a9f51e8478296616353e9b79e.gif http://i66.fastpic.ru/big/2015/1125/30/6f388eee3d85c3cdaf46c8bbe0354e30.gif


http://i73.fastpic.ru/big/2015/1126/e3/bc2c5d2d4e02ad7e7a9b4e235685a7e3.jpg
Размер347.80 MB (364,698,456 байт)
Скачать Дуплет для потаскухи - Holly Heart (Dirty Rotten Mother Fuckers 9)

:: Отзывы



Отзывы отсутствуют.

 :: Отзывов нет
РЕГИСТРАЦИЯ.

Смотрите бесплатное порно или эротику

footerLeft
Информация для правообладателей На ёгли вы скачаете порно, бесплатные фильмы, а также новинки кино. Все это бесплатно и без смс.