Cкачать бесплатно фильмы.
Поиск фильмов
Log Pass забыли?
  Бесплатные фильмы
Скачать Ебля в спортзале - Rhylee Richards and Rhyse Richards (Total fitness)
КатегорияОргия / Зрелые / Груди
Похожие фильмы



Похожие онлайн фильмы
Постер фильма Ебля в спортзале - Rhylee Richards and Rhyse Richards (Total fitness)
Ебля в спортзале - Rhylee Richards and Rhyse Richards (Total fitness)

Обзор



Двух шалав, подкачивающих в спорт-зале жопы, отъебет менеждер зала, потому что бляди не внеси ежемесячную абон плату


General
Complete name                            : C:UsersUserDownloadsRhylee Richards and Rhyse Richards (Total fitness).wmv
Format                                   : Windows Media
File size                                : 304 MiB
Duration                                 : 34mn 0s
Overall bit rate mode                    : Constant
Overall bit rate                         : 1 249 Kbps
Maximum Overall bit rate                 : 1 262 Kbps
Encoded date                             : UTC 2007-11-02 02:23:26.374
Copyright                                : RealityKings.com
Rating                                   : Adults Only

Video
ID                                       : 2
Format                                   : VC-1
Format profile                           : MP@ML
Codec ID                                 : WMV3
Codec ID/Info                            : Windows Media Video 9
Codec ID/Hint                            : WMV3
Description of the codec                 : Windows Media Video 9 - Professional
Duration                                 : 34mn 0s
Bit rate mode                            : Constant
Bit rate                                 : 1 200 Kbps
Width                                    : 720 pixels
Height                                   : 480 pixels
Display aspect ratio                     : 3:2
Frame rate                               : 30.000 fps
Standard                                 : NTSC
Color space                              : YUV
Chroma subsampling                       : 4:2:0
Bit depth                                : 8 bits
Scan type                                : Progressive
Compression mode                         : Lossy
Bits/(Pixel*Frame)                       : 0.116
Stream size                              : 292 MiB (96%)

Audio
ID                                       : 1
Format                                   : WMA
Format version                           : Version 2
Codec ID                                 : 161
Codec ID/Info                            : Windows Media Audio
Description of the codec                 : Windows Media Audio 9.2 -  48 kbps, 44 kHz, stereo 1-pass CBR
Duration                                 : 34mn 0s
Bit rate mode                            : Constant
Bit rate                                 : 48.0 Kbps
Channel(s)                               : 2 channels
Sampling rate                            : 44.1 KHz
Bit depth                                : 16 bits
Stream size                              : 11.7 MiB (4%)


http://i75.fastpic.ru/thumb/2015/1102/46/87e8baf31fb3535f29fed2b921808d46.jpeg http://i75.fastpic.ru/thumb/2015/1102/ac/5710aad4e9f9ae870ef4cf92e649adac.jpeg http://i75.fastpic.ru/thumb/2015/1102/3b/b46a913300ade7498cf77d5ffb178d3b.jpeg http://i75.fastpic.ru/thumb/2015/1102/39/856b712bd3d4664834984d8d9c2b1839.jpeg
Размер303.81 MB (318,569,731 байт)
Скачать Ебля в спортзале - Rhylee Richards and Rhyse Richards (Total fitness)

:: Отзывы



Отзывы отсутствуют.

 :: Отзывов нет
РЕГИСТРАЦИЯ.

Смотрите бесплатное порно или эротику

footerLeft
Информация для правообладателей На ёгли вы скачаете порно, бесплатные фильмы, а также новинки кино. Все это бесплатно и без смс.