Cкачать бесплатно фильмы.
Поиск фильмов
Log Pass забыли?
  Бесплатные фильмы
Скачать Жадная до черных членов - Candi Coxxx
КатегорияМежрассовое / Зрелые / Анал
Похожие фильмы



Похожие онлайн фильмы
Постер фильма Жадная до черных членов - Candi Coxxx
Жадная до черных членов - Candi Coxxx

Обзор



И снова шлюху Кэнди Кох будут дуплить, на этот раз черные


General
Complete name                            : C:UsersUserDownloadsCandi Coxxx.mp4
Format                                   : MPEG-4
Format profile                           : Base Media
Codec ID                                 : isom
File size                                : 307 MiB
Duration                                 : 27mn 20s
Overall bit rate                         : 1 567 Kbps
Writing application                      : Lavf54.63.104

Video
ID                                       : 1
Format                                   : AVC
Format/Info                              : Advanced Video Codec
Format profile                           : Baseline@L3.0
Format settings, CABAC                   : No
Format settings, ReFrames                : 5 frames
Codec ID                                 : avc1
Codec ID/Info                            : Advanced Video Coding
Duration                                 : 27mn 20s
Bit rate                                 : 1 500 Kbps
Width                                    : 768 pixels
Height                                   : 432 pixels
Display aspect ratio                     : 16:9
Frame rate mode                          : Constant
Frame rate                               : 59.940 fps
Color space                              : YUV
Chroma subsampling                       : 4:2:0
Bit depth                                : 8 bits
Scan type                                : Progressive
Bits/(Pixel*Frame)                       : 0.075
Stream size                              : 292 MiB (95%)
Writing library                          : x264 core 142
Encoding settings                        : cabac=0 / ref=5 / deblock=1:0:0 / analyse=0x1:0x111 / me=umh / subme=8 / psy=1 / psy_rd=1.00:0.00 / mixed_ref=1 / me_range=16 / chroma_me=1 / trellis=1 / 8x8dct=0 / cqm=0 / deadzone=21,11 / fast_pskip=1 / chroma_qp_offset=-2 / threads=24 / lookahead_threads=3 / sliced_threads=0 / nr=0 / decimate=1 / interlaced=0 / bluray_compat=0 / constrained_intra=0 / bframes=0 / weightp=0 / keyint=250 / keyint_min=25 / scenecut=40 / intra_refresh=0 / rc_lookahead=50 / rc=abr / mbtree=1 / bitrate=1500 / ratetol=1.0 / qcomp=0.60 / qpmin=0 / qpmax=69 / qpstep=4 / ip_ratio=1.40 / aq=1:1.00
Language                                 : English

Audio
ID                                       : 2
Format                                   : AAC
Format/Info                              : Advanced Audio Codec
Format profile                           : LC
Codec ID                                 : 40
Duration                                 : 27mn 20s
Bit rate mode                            : Constant
Bit rate                                 : 64.2 Kbps
Channel(s)                               : 2 channels
Channel positions                        : Front: L R
Sampling rate                            : 48.0 KHz
Compression mode                         : Lossy
Stream size                              : 12.6 MiB (4%)
Language                                 : English


http://i74.fastpic.ru/thumb/2015/1105/4d/a89634d38cc236c7ca0889a4fdff2a4d.jpeg http://i74.fastpic.ru/thumb/2015/1105/ca/54b7d4fd8d937d5892b66cdb30d7ceca.jpeg http://i74.fastpic.ru/thumb/2015/1105/12/c172506ce2833e7c4c833ed38a8c0d12.jpeg http://i74.fastpic.ru/thumb/2015/1105/0d/05071b325443f1693f6a9e47f8563f0d.jpeg
Размер306.63 MB (321,528,778 байт)
Скачать Жадная до черных членов - Candi Coxxx

:: ОТЗЫВЫ


button_offline Отзыв от Hl1kojla
avatar 722321

потом она опять (семерых) родила

button_offline Отзыв от asdfaserer
avatar 869855

:w00t: :w00t: :w00t:

РЕГИСТРАЦИЯ.

Смотрите бесплатное порно или эротику

footerLeft
Информация для правообладателей На ёгли вы скачаете порно, бесплатные фильмы, а также новинки кино. Все это бесплатно и без смс.