Cкачать бесплатно фильмы.
Поиск фильмов
Log Pass забыли?
  Бесплатные фильмы
Скачать Жасминку расдуплили - Jasmine Jae (All Access Jasmine Jae, Scene 1)
КатегорияЖёсткое / Анал / Груди
Похожие фильмы



Похожие онлайн фильмы
Постер фильма Жасминку расдуплили - Jasmine Jae (All Access Jasmine Jae, Scene 1)
Жасминку расдуплили - Jasmine Jae (All Access Jasmine Jae, Scene 1)

Обзор



Блядину ебут два парня дуплетом

http://thumbnails115.imagebam.com/50545/4a370f505442339.jpg http://thumbnails115.imagebam.com/50545/3e87c1505442341.jpg http://thumbnails115.imagebam.com/50545/e3dcd4505442342.jpg http://thumbnails115.imagebam.com/50545/35af4b505442344.jpg http://thumbnails116.imagebam.com/50545/49b7ab505442345.jpg http://thumbnails116.imagebam.com/50545/5bc866505442346.jpg http://thumbnails115.imagebam.com/50545/ecf1d9505442348.jpg http://thumbnails115.imagebam.com/50545/e9c47c505442350.jpg

General
Complete name                  : C:UsersUserDownloadsAvsPhelpJasmine Jae (All Access Jasmine Jae, Scene 1).mp4
Format                         : MPEG-4
Format profile                 : Base Media
Codec ID                       : isom
File size                      : 367 MiB
Duration                       : 35mn 12s
Overall bit rate               : 1 457 Kbps
Encoded date                   : UTC 2016-09-16 04:57:16
Tagged date                    : UTC 2016-09-16 04:57:16

Video
ID                             : 1
Format                         : AVC
Format/Info                    : Advanced Video Codec
Format profile                 : Main@L3.1
Format settings, CABAC         : Yes
Format settings, ReFrames      : 5 frames
Codec ID                       : avc1
Codec ID/Info                  : Advanced Video Coding
Duration                       : 35mn 12s
Bit rate                       : 1 409 Kbps
Width                          : 854 pixels
Height                         : 480 pixels
Display aspect ratio           : 16:9
Frame rate mode                : Constant
Frame rate                     : 29.970 fps
Color space                    : YUV
Chroma subsampling             : 4:2:0
Bit depth                      : 8 bits
Scan type                      : Progressive
Bits/(Pixel*Frame)             : 0.115
Stream size                    : 355 MiB (97%)
Tagged date                    : UTC 2016-09-16 04:58:04

Audio
ID                             : 2
Format                         : AAC
Format/Info                    : Advanced Audio Codec
Format profile                 : LC
Codec ID                       : 40
Duration                       : 35mn 12s
Bit rate mode                  : Constant
Bit rate                       : 44.0 Kbps
Channel(s)                     : 2 channels
Channel positions              : Front: L R
Sampling rate                  : 48.0 KHz
Compression mode               : Lossy
Stream size                    : 11.1 MiB (3%)
Tagged date                    : UTC 2016-09-16 04:58:04

Размер367.05 MB (384,880,790 байт)
Скачать Жасминку расдуплили - Jasmine Jae (All Access Jasmine Jae, Scene 1)

:: ОТЗЫВЫ


button_offline Отзыв от av359
avatar 636035

:w00t: :w00t: :w00t:

РЕГИСТРАЦИЯ.

Смотрите бесплатное порно или эротику

footerLeft
Информация для правообладателей На ёгли вы скачаете порно, бесплатные фильмы, а также новинки кино. Все это бесплатно и без смс.