Cкачать бесплатно фильмы.
Поиск фильмов
Log Pass забыли?
  Бесплатные фильмы
Скачать Жесткий секс с симпатичной блондой - is porno video www.ge18.in \-is porno video www.ge18.in
КатегорияЖёсткое
Похожие фильмы



Похожие онлайн фильмы
Постер фильма Жесткий секс с симпатичной блондой - is porno video www.ge18.in \-is porno video www.ge18.in
Жесткий секс с симпатичной блондой - is porno video  www.ge18.in \-is porno video  www.ge18.in
Фото фильма Жесткий секс с симпатичной блондой - is porno video www.ge18.in \-is porno video www.ge18.in
Жесткий секс с симпатичной блондой - is porno video  www.ge18.in \-is porno video  www.ge18.in

Обзор



Format                           : AVI
Format/Info                      : Audio Video Interleave
File size                        : 82.9 MiB
Duration                         : 17mn 55s
Overall bit rate                 : 647 Kbps
Writing application              : Lavf51.12.1

Video
ID                               : 0
Format                           : AVC
Format/Info                      : Advanced Video Codec
Format profile                   : Baseline@L1.3
Format settings, CABAC           : No
Format settings, ReFrames        : 1 frame
Codec ID                         : H264
Duration                         : 6s 112ms
Bit rate                         : 502 Kbps
Width                            : 480 pixels
Height                           : 352 pixels
Display aspect ratio             : 4:3
Frame rate                       : 49.083 fps
Color space                      : YUV
Chroma subsampling               : 4:2:0
Bit depth                        : 8 bits
Scan type                        : Progressive
Bits/(Pixel*Frame)               : 0.061
Stream size                      : 64.3 MiB (78%)

Audio
ID                               : 1
Format                           : MPEG Audio
Format version                   : Version 1
Format profile                   : Layer 3
Mode                             : Joint stereo
Mode extension                   : MS Stereo
Codec ID                         : 55
Codec ID/Hint                    : MP3
Duration                         : 17mn 55s
Bit rate mode                    : Constant
Bit rate                         : 128 Kbps
Channel(s)                       : 2 channels
Sampling rate                    : 44.1 KHz
Compression mode                 : Lossy
Stream size                      : 16.4 MiB (20%)
Alignment                        : Aligned on interleaves
Interleave, duration             : 26 ms (1.28 video frame)
Writing library                  : LAME3.97ЄЄЄЄЄЄЄЄЄЄЄЄ
Размер82.94 MB (86,970,582 байт)
Скачать Жесткий секс с симпатичной блондой - is porno video www.ge18.in \-is porno video www.ge18.in

:: Отзывы



Отзывы отсутствуют.

 :: Отзывов нет
РЕГИСТРАЦИЯ.

Смотрите бесплатное порно или эротику

footerLeft
Информация для правообладателей На ёгли вы скачаете порно, бесплатные фильмы, а также новинки кино. Все это бесплатно и без смс.