Cкачать бесплатно фильмы.
Поиск фильмов
Log Pass забыли?
  Бесплатные фильмы
Скачать Живая сталь , Real Steel 720p [2011 | HDTV]
КатегорияБоевик / Драма
Похожие фильмы



Похожие онлайн фильмы
Постер фильма Живая сталь , Real Steel 720p [2011 | HDTV]
Живая сталь  , Real Steel 720p [2011 | HDTV]
Фото фильма Живая сталь , Real Steel 720p [2011 | HDTV]
Живая сталь  , Real Steel 720p [2011 | HDTV]

Трэйлер


T75j9CoBVzE&feature=player_embedded

Обзор



Название: Живая сталь  
Оригинальное название: Real Steel 720p
Год выхода: 2011
Режиссер: Шон Лев
В ролях:  Хью Джекман, Дакота Гойо, Эванджелин Лилли, Энтони Маки, Кевин Дюран, Хоуп Дэвис, Джеймс Ребхорн, Марко Руджери, Карл Йун, Ольга Фонда
Продолжительность: 02:06:51
Язык: Русский Профессиональный (полное дублирование)

О фильме:
«Чемпионами не рождаются, их собирают»

События фильма происходят в будущем, где бокс запрещен за негуманностью и заменен боями 2000-фунтовых роботов, управляемых людьми. Бывший боксер, а теперь промоутер, переметнувшийся в Робобокс, решает, что наконец нашел своего чемпиона, когда ему попадается выбракованный, но очень способный робот. Одновременно на жизненном пути героя возникает 11-летний пацан, оказывающийся его сыном. И по мере того, как машина пробивает свой путь к вершине, обретшие друг друга отец и сын учатся дружить.


http://s017.radikal.ru/i400/1112/a8/ff76ca9353fe.gif


http://t.imgbox.com/aahNtRPZ.jpg http://t.imgbox.com/aazwVeje.jpg http://t.imgbox.com/aanJgvRE.jpg http://t.imgbox.com/aasBuCzM.jpg http://t.imgbox.com/aaeuBCO2.jpg http://t.imgbox.com/aap9pXQA.jpg http://t.imgbox.com/aamZjXav.jpg http://t.imgbox.com/aarkoL8R.jpg


INFO AUDIO!

Audio #1
ID                                      : 2
Format                                  : AC-3
Format/Info                              : Audio Coding 3
Mode extension                          : CM (complete main)
Codec ID                                : A_AC3
Duration                                : 2h 6mn
Bit rate mode                            : Constant
Bit rate                                : 384 Kbps
Channel(s)                              : 6 channels
Channel positions                        : Front: L C R, Side: L R, LFE
Sampling rate                            : 48.0 KHz
Bit depth                                : 16 bits
Compression mode                        : Lossy
Stream size                              : 348 MiB (5%)

Audio #2
ID                                      : 3
Format                                  : DTS
Format/Info                              : Digital Theater Systems
Codec ID                                : A_DTS
Duration                                : 2h 6mn
Bit rate mode                            : Constant
Bit rate                                : 1 510 Kbps
Channel(s)                              : 6 channels
Channel positions                        : Front: L C R, Side: L R, LFE
Sampling rate                            : 48.0 KHz
Bit depth                                : 24 bits
Compression mode                        : Lossy
Delay relative to video                  : 11ms
Stream size                              : 1.34 GiB (21%)
Language                                : English


http://s42.radikal.ru/i095/1112/79/d1d67ef78403.gif


http://s011.radikal.ru/i318/1112/05/36b3cd8cfa48.png  


ФАЙЛ
Качество: HDTV
Видео: AVC, 1280x544 (2.35:1), 23.976 fps, 5 222 Kbps (0.313 bit/pixel)
Звук: Audio #1: AC-3, 48.0 KHz, 6 ch, 384 Kbps, CBR Audio #2: DTS, 48.0 KHz, 6 ch, 1 510 Kbps, CBR (English)
Размер6.31 GB (6,771,536,838 байт)
Скачать Живая сталь , Real Steel 720p [2011 | HDTV]

:: ОТЗЫВЫ


button_offline Отзыв от weker
avatar 699752

оооооооооо поглядим)))))

button_offline Отзыв от algo
avatar 772352

хороший фильм  8-) 8-) 8-)

button_offline Отзыв от kiram
avatar 504653

фильмец супер ;-) ;-) ;-)

button_offline Отзыв от Зуев
avatar 691381

Хорош для семейного просмотра.Спасибо. :w00t: :w00t: :w00t: :w00t: :w00t: :w00t: :w00t:

button_offline Отзыв от uffie
avatar 693785

наивное детское кино. про то как плохой папа вдруг стал хорошим...
:shit: :shit: :shit:

button_offline Отзыв от pla_gen
avatar 790241

Прикольный фильмец :weirdo: :weirdo: :weirdo: :weirdo: :weirdo: :weirdo: :weirdo: :weirdo: :weirdo: :weirdo: :weirdo: :weirdo: :weirdo:

button_offline Отзыв от elenagorelo
avatar 501661

качество супер,только вот лично у меня проблемы со звуком,наверное кодеков не хватает :-(

РЕГИСТРАЦИЯ.

Смотрите бесплатное порно или эротику

footerLeft
Информация для правообладателей На ёгли вы скачаете порно, бесплатные фильмы, а также новинки кино. Все это бесплатно и без смс.