Cкачать бесплатно фильмы.
Поиск фильмов
Log Pass забыли?
  Бесплатные фильмы
Скачать Загоревшие сиськи - Kerry Louise
КатегорияГруди
Похожие фильмы



Похожие онлайн фильмы
Постер фильма Загоревшие сиськи - Kerry Louise
Загоревшие сиськи - Kerry Louise

Обзор



Дает за бабло пузатому и плешивому


General
Complete name                            : C:UsersUserDownloadsKerry Louise.mp4
Format                                   : MPEG-4
Format profile                           : Base Media
Codec ID                                 : isom
File size                                : 153 MiB
Duration                                 : 10mn 58s
Overall bit rate mode                    : Variable
Overall bit rate                         : 1 952 Kbps
Encoded date                             : UTC 2014-12-01 14:18:34
Tagged date                              : UTC 2014-12-01 14:18:34

Video
ID                                       : 1
Format                                   : AVC
Format/Info                              : Advanced Video Codec
Format profile                           : High@L4.1
Format settings, CABAC                   : Yes
Format settings, ReFrames                : 8 frames
Format settings, GOP                     : M=1, N=25
Codec ID                                 : avc1
Codec ID/Info                            : Advanced Video Coding
Duration                                 : 10mn 58s
Bit rate                                 : 1 885 Kbps
Maximum bit rate                         : 3 796 Kbps
Width                                    : 1 280 pixels
Height                                   : 720 pixels
Display aspect ratio                     : 16:9
Frame rate mode                          : Constant
Frame rate                               : 25.000 fps
Color space                              : YUV
Chroma subsampling                       : 4:2:0
Bit depth                                : 8 bits
Scan type                                : Progressive
Bits/(Pixel*Frame)                       : 0.082
Stream size                              : 148 MiB (97%)
Writing library                          : Zencoder Video Encoding System
Encoded date                             : UTC 2014-12-01 14:15:15
Tagged date                              : UTC 2014-12-01 14:18:34
Color primaries                          : BT.709
Transfer characteristics                 : BT.709
Matrix coefficients                      : BT.709

Audio
ID                                       : 2
Format                                   : AAC
Format/Info                              : Advanced Audio Codec
Format profile                           : LC
Codec ID                                 : 40
Duration                                 : 10mn 58s
Bit rate mode                            : Variable
Bit rate                                 : 64.0 Kbps
Maximum bit rate                         : 70.7 Kbps
Channel(s)                               : 2 channels
Channel positions                        : Front: L R
Sampling rate                            : 44.1 KHz
Compression mode                         : Lossy
Stream size                              : 5.02 MiB (3%)
Encoded date                             : UTC 2014-12-01 14:18:34
Tagged date                              : UTC 2014-12-01 14:18:34


http://i65.fastpic.ru/thumb/2015/1104/0d/94afcc259893312337ed1e0e816bb80d.jpeg http://i65.fastpic.ru/thumb/2015/1104/b3/f771430196dd20e2dc5002a6b6ec70b3.jpeg http://i65.fastpic.ru/thumb/2015/1104/1b/6beb0853a80466c8b1c45851563fcc1b.jpeg http://i65.fastpic.ru/thumb/2015/1104/b7/73ee0553fb9dec94774ae59625a1d6b7.jpeg
Размер153.16 MB (160,601,682 байт)
Скачать Загоревшие сиськи - Kerry Louise

:: Отзывы



Отзывы отсутствуют.

 :: Отзывов нет
РЕГИСТРАЦИЯ.

Смотрите бесплатное порно или эротику

footerLeft
Информация для правообладателей На ёгли вы скачаете порно, бесплатные фильмы, а также новинки кино. Все это бесплатно и без смс.