Cкачать бесплатно фильмы.
Поиск фильмов
Log Pass забыли?
  Бесплатные фильмы
Скачать Знание через секс - Syren De Mer
КатегорияЗрелые / Груди
Похожие фильмы



Похожие онлайн фильмы
Постер фильма Знание через секс - Syren De Mer
Знание через секс - Syren De Mer

Обзор



Классуха за поставленный зачет по истории требует, чтобы ученик трахнул ее старую дырку


General
Complete name                            : C:UsersUserDownloadsSyren De Mer.mp4
Format                                   : MPEG-4
Format profile                           : Base Media
Codec ID                                 : isom
File size                                : 382 MiB
Duration                                 : 27mn 38s
Overall bit rate                         : 1 935 Kbps
Writing application                      : Lavf54.59.106

Video
ID                                       : 1
Format                                   : AVC
Format/Info                              : Advanced Video Codec
Format profile                           : High@L3.1
Format settings, CABAC                   : Yes
Format settings, ReFrames                : 4 frames
Codec ID                                 : avc1
Codec ID/Info                            : Advanced Video Coding
Duration                                 : 27mn 38s
Bit rate                                 : 1 800 Kbps
Width                                    : 1 280 pixels
Height                                   : 720 pixels
Display aspect ratio                     : 16:9
Frame rate mode                          : Constant
Frame rate                               : 25.000 fps
Color space                              : YUV
Chroma subsampling                       : 4:2:0
Bit depth                                : 8 bits
Scan type                                : Progressive
Bits/(Pixel*Frame)                       : 0.078
Stream size                              : 356 MiB (93%)
Writing library                          : x264 core 129
Encoding settings                        : cabac=1 / ref=3 / deblock=1:0:0 / analyse=0x3:0x113 / me=hex / subme=7 / psy=1 / psy_rd=1.00:0.00 / mixed_ref=1 / me_range=16 / chroma_me=1 / trellis=1 / 8x8dct=1 / cqm=0 / deadzone=21,11 / fast_pskip=1 / chroma_qp_offset=-2 / threads=24 / lookahead_threads=4 / sliced_threads=0 / nr=0 / decimate=1 / interlaced=0 / bluray_compat=0 / constrained_intra=0 / bframes=3 / b_pyramid=2 / b_adapt=1 / b_bias=0 / direct=1 / weightb=1 / open_gop=0 / weightp=2 / keyint=250 / keyint_min=25 / scenecut=40 / intra_refresh=0 / rc_lookahead=40 / rc=abr / mbtree=1 / bitrate=1800 / ratetol=1.0 / qcomp=0.60 / qpmin=0 / qpmax=69 / qpstep=4 / ip_ratio=1.40 / aq=1:1.00
Language                                 : English

Audio
ID                                       : 2
Format                                   : AAC
Format/Info                              : Advanced Audio Codec
Format profile                           : LC
Codec ID                                 : 40
Duration                                 : 27mn 37s
Bit rate mode                            : Constant
Bit rate                                 : 128 Kbps
Channel(s)                               : 2 channels
Channel positions                        : Front: L R
Sampling rate                            : 44.1 KHz
Compression mode                         : Lossy
Stream size                              : 25.3 MiB (7%)
Language                                 : English


http://i73.fastpic.ru/big/2015/1121/45/758441d588e1f72b510df49f753d4f45.gif http://i75.fastpic.ru/big/2015/1121/40/706263ad329a2da730c71c4a789a0e40.gif
http://i76.fastpic.ru/big/2015/1121/33/25a8b9f71dc1cbdda7b1e563f44c0f33.gif http://i74.fastpic.ru/big/2015/1121/04/b3728d8b4a703c21b494a4466ef79404.gif


http://i74.fastpic.ru/big/2015/1121/18/06d9056050a708789aa2153d0d2bfc18.jpg
Размер382.40 MB (400,978,596 байт)
Скачать Знание через секс - Syren De Mer

:: Отзывы



Отзывы отсутствуют.

 :: Отзывов нет
РЕГИСТРАЦИЯ.

Смотрите бесплатное порно или эротику

footerLeft
Информация для правообладателей На ёгли вы скачаете порно, бесплатные фильмы, а также новинки кино. Все это бесплатно и без смс.