Cкачать бесплатно фильмы.
Поиск фильмов
Log Pass забыли?
  Бесплатные фильмы
Скачать Зрелые блонды любят трах - Rhyse Richards
КатегорияЗрелые / Груди
Похожие фильмы



Похожие онлайн фильмы
Постер фильма Зрелые блонды любят трах - Rhyse Richards
Зрелые  блонды любят трах - Rhyse Richards

Обзор



Белокурая шалава трахает мужика со всей своей блядской мощи


General
Complete name                            : C:UsersUserDownloadsRhyse Richards.mp4
Format                                   : MPEG-4
Format profile                           : Base Media
Codec ID                                 : isom
File size                                : 328 MiB
Duration                                 : 19mn 48s
Overall bit rate mode                    : Variable
Overall bit rate                         : 2 316 Kbps
Encoded date                             : UTC 2013-11-25 10:19:57
Tagged date                              : UTC 2013-11-25 10:19:57

Video
ID                                       : 1
Format                                   : AVC
Format/Info                              : Advanced Video Codec
Format profile                           : High@L4.1
Format settings, CABAC                   : Yes
Format settings, ReFrames                : 8 frames
Format settings, GOP                     : M=1, N=25
Codec ID                                 : avc1
Codec ID/Info                            : Advanced Video Coding
Duration                                 : 19mn 48s
Bit rate                                 : 2 250 Kbps
Maximum bit rate                         : 3 559 Kbps
Width                                    : 1 280 pixels
Height                                   : 720 pixels
Display aspect ratio                     : 16:9
Frame rate mode                          : Constant
Frame rate                               : 25.000 fps
Color space                              : YUV
Chroma subsampling                       : 4:2:0
Bit depth                                : 8 bits
Scan type                                : Progressive
Bits/(Pixel*Frame)                       : 0.098
Stream size                              : 319 MiB (97%)
Writing library                          : Zencoder Video Encoding System
Encoded date                             : UTC 2013-11-25 10:09:13
Tagged date                              : UTC 2013-11-25 10:19:58

Audio
ID                                       : 2
Format                                   : AAC
Format/Info                              : Advanced Audio Codec
Format profile                           : LC
Codec ID                                 : 40
Duration                                 : 19mn 48s
Bit rate mode                            : Variable
Bit rate                                 : 63.9 Kbps
Maximum bit rate                         : 69.8 Kbps
Channel(s)                               : 2 channels
Channel positions                        : Front: L R
Sampling rate                            : 44.1 KHz
Compression mode                         : Lossy
Stream size                              : 9.06 MiB (3%)
Encoded date                             : UTC 2013-11-25 10:19:58
Tagged date                              : UTC 2013-11-25 10:19:58


http://i65.fastpic.ru/thumb/2015/1104/13/1462a41d5a7fc0b2448fbd8ba3d12813.jpeg http://i65.fastpic.ru/thumb/2015/1104/a5/d5ebc4b83114ebad9a1a712110e673a5.jpeg http://i65.fastpic.ru/thumb/2015/1104/49/63f7b2bf9fe9b7aecd6a556cb39ca349.jpeg http://i65.fastpic.ru/thumb/2015/1104/fe/a21501bb446f3dbc811878d084c14ffe.jpeg
Размер328.17 MB (344,109,708 байт)
Скачать Зрелые блонды любят трах - Rhyse Richards

:: Отзывы



Отзывы отсутствуют.

 :: Отзывов нет
РЕГИСТРАЦИЯ.

Смотрите бесплатное порно или эротику

footerLeft
Информация для правообладателей На ёгли вы скачаете порно, бесплатные фильмы, а также новинки кино. Все это бесплатно и без смс.