Cкачать бесплатно фильмы.
Поиск фильмов
Log Pass забыли?
  Бесплатные фильмы
Скачать И толстым хочется приятностей - Angel Vain (Evil BBW Gold 3)
КатегорияАнал / Зрелые / Груди / Толстые
Похожие фильмы



Похожие онлайн фильмы
Постер фильма И толстым хочется приятностей - Angel Vain (Evil BBW Gold 3)
И толстым хочется приятностей - Angel Vain  (Evil BBW Gold 3)

Обзор



Толстую шлюху ебут в жопу


General
Complete name                            : C:UsersUserDownloadsAngel Vain  (Evil BBW Gold 3).mp4
Format                                   : MPEG-4
Format profile                           : Base Media
Codec ID                                 : isom
File size                                : 612 MiB
Duration                                 : 43mn 56s
Overall bit rate mode                    : Variable
Overall bit rate                         : 1 948 Kbps
Encoded date                             : UTC 1970-01-01 00:00:00
Tagged date                              : UTC 1970-01-01 00:00:00
Writing application                      : Lavf52.93.0

Video
ID                                       : 1
Format                                   : AVC
Format/Info                              : Advanced Video Codec
Format profile                           : High@L3.1
Format settings, CABAC                   : Yes
Format settings, ReFrames                : 4 frames
Codec ID                                 : avc1
Codec ID/Info                            : Advanced Video Coding
Duration                                 : 43mn 55s
Bit rate                                 : 1 800 Kbps
Width                                    : 960 pixels
Height                                   : 544 pixels
Display aspect ratio                     : 16:9
Frame rate mode                          : Constant
Frame rate                               : 29.970 fps
Color space                              : YUV
Chroma subsampling                       : 4:2:0
Bit depth                                : 8 bits
Scan type                                : Progressive
Bits/(Pixel*Frame)                       : 0.115
Stream size                              : 562 MiB (92%)
Writing library                          : x264 core 107
Encoding settings                        : cabac=1 / ref=3 / deblock=1:0:0 / analyse=0x3:0x113 / me=umh / subme=6 / psy=1 / psy_rd=1.00:0.00 / mixed_ref=1 / me_range=16 / chroma_me=1 / trellis=0 / 8x8dct=1 / cqm=0 / deadzone=21,11 / fast_pskip=1 / chroma_qp_offset=-2 / threads=1 / sliced_threads=0 / nr=0 / decimate=1 / interlaced=0 / constrained_intra=0 / bframes=2 / b_pyramid=2 / b_adapt=2 / b_bias=0 / direct=2 / weightb=1 / open_gop=0 / weightp=0 / keyint=30 / keyint_min=16 / scenecut=0 / intra_refresh=0 / rc_lookahead=30 / rc=abr / mbtree=1 / bitrate=1800 / ratetol=1.0 / qcomp=0.60 / qpmin=1 / qpmax=31 / qpstep=4 / ip_ratio=1.41 / aq=1:1.00
Encoded date                             : UTC 1970-01-01 00:00:00
Tagged date                              : UTC 1970-01-01 00:00:00

Audio
ID                                       : 2
Format                                   : AAC
Format/Info                              : Advanced Audio Codec
Format profile                           : LC
Codec ID                                 : 40
Duration                                 : 43mn 56s
Bit rate mode                            : Variable
Bit rate                                 : 152 Kbps
Channel(s)                               : 2 channels
Channel positions                        : Front: L R
Sampling rate                            : 44.1 KHz
Compression mode                         : Lossy
Stream size                              : 47.7 MiB (8%)
Encoded date                             : UTC 1970-01-01 00:00:00
Tagged date                              : UTC 1970-01-01 00:00:00


http://i76.fastpic.ru/big/2015/1127/45/26d3b0e1875ba0fcdf7f07fff276da45.gif http://i67.fastpic.ru/big/2015/1127/8f/a5b8bedd82203d3acb3cf2b8c5efd08f.gif
http://i65.fastpic.ru/big/2015/1127/00/3db2f8670470e086aa6c63713c513500.gif http://i75.fastpic.ru/big/2015/1127/3c/3185eab0475ac6b6f4ed94458125073c.gif


http://i67.fastpic.ru/big/2015/1127/af/d310422ef175a366f4e491e8f41841af.jpg
Размер612.22 MB (641,957,856 байт)
Скачать И толстым хочется приятностей - Angel Vain (Evil BBW Gold 3)

:: ОТЗЫВЫ


button_offline Отзыв от Sergoganet
avatar 456681

:-) :-) :-) :-) :-) :-) :-)

РЕГИСТРАЦИЯ.

Смотрите бесплатное порно или эротику

footerLeft
Информация для правообладателей На ёгли вы скачаете порно, бесплатные фильмы, а также новинки кино. Все это бесплатно и без смс.